  0
SECTION
  2
HEADER
  9
$ACADVER
  1
AC1015
  9
$ACADMAINTVER
 70
     6
  9
$DWGCODEPAGE
  3
ANSI_936
  9
$INSBASE
 10
0.0
 20
0.0
 30
0.0
  9
$EXTMIN
 10
160.3029993530645
 20
119.4020000793261
 30
0.0
  9
$EXTMAX
 10
2331.989077188242
 20
846.4764408342035
 30
0.0
  9
$LIMMIN
 10
0.0
 20
0.0
  9
$LIMMAX
 10
12.0
 20
9.0
  9
$ORTHOMODE
 70
     0
  9
$REGENMODE
 70
     1
  9
$FILLMODE
 70
     1
  9
$QTEXTMODE
 70
     0
  9
$MIRRTEXT
 70
     1
  9
$LTSCALE
 40
1.0
  9
$ATTMODE
 70
     1
  9
$TEXTSIZE
 40
0.2
  9
$TRACEWID
 40
0.05
  9
$TEXTSTYLE
  7
Standard
  9
$CLAYER
  8
0
  9
$CELTYPE
  6
ByLayer
  9
$CECOLOR
 62
   256
  9
$CELTSCALE
 40
1.0
  9
$DISPSILH
 70
     0
  9
$DIMSCALE
 40
1.0
  9
$DIMASZ
 40
0.18
  9
$DIMEXO
 40
0.0625
  9
$DIMDLI
 40
0.38
  9
$DIMRND
 40
0.0
  9
$DIMDLE
 40
0.0
  9
$DIMEXE
 40
0.18
  9
$DIMTP
 40
0.0
  9
$DIMTM
 40
0.0
  9
$DIMTXT
 40
0.18
  9
$DIMCEN
 40
0.09
  9
$DIMTSZ
 40
0.0
  9
$DIMTOL
 70
     0
  9
$DIMLIM
 70
     0
  9
$DIMTIH
 70
     1
  9
$DIMTOH
 70
     1
  9
$DIMSE1
 70
     0
  9
$DIMSE2
 70
     0
  9
$DIMTAD
 70
     0
  9
$DIMZIN
 70
     0
  9
$DIMBLK
  1

  9
$DIMASO
 70
     1
  9
$DIMSHO
 70
     1
  9
$DIMPOST
  1

  9
$DIMAPOST
  1

  9
$DIMALT
 70
     0
  9
$DIMALTD
 70
     2
  9
$DIMALTF
 40
25.4
  9
$DIMLFAC
 40
1.0
  9
$DIMTOFL
 70
     0
  9
$DIMTVP
 40
0.0
  9
$DIMTIX
 70
     0
  9
$DIMSOXD
 70
     0
  9
$DIMSAH
 70
     0
  9
$DIMBLK1
  1

  9
$DIMBLK2
  1

  9
$DIMSTYLE
  2
Standard
  9
$DIMCLRD
 70
     0
  9
$DIMCLRE
 70
     0
  9
$DIMCLRT
 70
     0
  9
$DIMTFAC
 40
1.0
  9
$DIMGAP
 40
0.09
  9
$DIMJUST
 70
     0
  9
$DIMSD1
 70
     0
  9
$DIMSD2
 70
     0
  9
$DIMTOLJ
 70
     1
  9
$DIMTZIN
 70
     0
  9
$DIMALTZ
 70
     0
  9
$DIMALTTZ
 70
     0
  9
$DIMUPT
 70
     0
  9
$DIMDEC
 70
     4
  9
$DIMTDEC
 70
     4
  9
$DIMALTU
 70
     2
  9
$DIMALTTD
 70
     2
  9
$DIMTXSTY
  7
Standard
  9
$DIMAUNIT
 70
     0
  9
$DIMADEC
 70
     0
  9
$DIMALTRND
 40
0.0
  9
$DIMAZIN
 70
     0
  9
$DIMDSEP
 70
    46
  9
$DIMATFIT
 70
     3
  9
$DIMFRAC
 70
     0
  9
$DIMLDRBLK
  1

  9
$DIMLUNIT
 70
     2
  9
$DIMLWD
 70
    -2
  9
$DIMLWE
 70
    -2
  9
$DIMTMOVE
 70
     0
  9
$LUNITS
 70
     2
  9
$LUPREC
 70
     4
  9
$SKETCHINC
 40
0.1
  9
$FILLETRAD
 40
0.0
  9
$AUNITS
 70
     0
  9
$AUPREC
 70
     0
  9
$MENU
  1
.
  9
$ELEVATION
 40
0.0
  9
$PELEVATION
 40
0.0
  9
$THICKNESS
 40
0.0
  9
$LIMCHECK
 70
     0
  9
$CHAMFERA
 40
0.5
  9
$CHAMFERB
 40
0.5
  9
$CHAMFERC
 40
1.0
  9
$CHAMFERD
 40
0.0
  9
$SKPOLY
 70
     0
  9
$TDCREATE
 40
2455841.60680022
  9
$TDUCREATE
 40
2455841.273466886
  9
$TDUPDATE
 40
2457586.952001574
  9
$TDUUPDATE
 40
2457586.618668241
  9
$TDINDWG
 40
0.0407893634
  9
$TDUSRTIMER
 40
0.0407893634
  9
$USRTIMER
 70
     1
  9
$ANGBASE
 50
0.0
  9
$ANGDIR
 70
     0
  9
$PDMODE
 70
     0
  9
$PDSIZE
 40
0.0
  9
$PLINEWID
 40
0.0
  9
$SPLFRAME
 70
     0
  9
$SPLINETYPE
 70
     6
  9
$SPLINESEGS
 70
     8
  9
$HANDSEED
  5
520E
  9
$SURFTAB1
 70
     6
  9
$SURFTAB2
 70
     6
  9
$SURFTYPE
 70
     6
  9
$SURFU
 70
     6
  9
$SURFV
 70
     6
  9
$UCSBASE
  2

  9
$UCSNAME
  2

  9
$UCSORG
 10
0.0
 20
0.0
 30
0.0
  9
$UCSXDIR
 10
1.0
 20
0.0
 30
0.0
  9
$UCSYDIR
 10
0.0
 20
1.0
 30
0.0
  9
$UCSORTHOREF
  2

  9
$UCSORTHOVIEW
 70
     0
  9
$UCSORGTOP
 10
0.0
 20
0.0
 30
0.0
  9
$UCSORGBOTTOM
 10
0.0
 20
0.0
 30
0.0
  9
$UCSORGLEFT
 10
0.0
 20
0.0
 30
0.0
  9
$UCSORGRIGHT
 10
0.0
 20
0.0
 30
0.0
  9
$UCSORGFRONT
 10
0.0
 20
0.0
 30
0.0
  9
$UCSORGBACK
 10
0.0
 20
0.0
 30
0.0
  9
$PUCSBASE
  2

  9
$PUCSNAME
  2

  9
$PUCSORG
 10
0.0
 20
0.0
 30
0.0
  9
$PUCSXDIR
 10
1.0
 20
0.0
 30
0.0
  9
$PUCSYDIR
 10
0.0
 20
1.0
 30
0.0
  9
$PUCSORTHOREF
  2

  9
$PUCSORTHOVIEW
 70
     0
  9
$PUCSORGTOP
 10
0.0
 20
0.0
 30
0.0
  9
$PUCSORGBOTTOM
 10
0.0
 20
0.0
 30
0.0
  9
$PUCSORGLEFT
 10
0.0
 20
0.0
 30
0.0
  9
$PUCSORGRIGHT
 10
0.0
 20
0.0
 30
0.0
  9
$PUCSORGFRONT
 10
0.0
 20
0.0
 30
0.0
  9
$PUCSORGBACK
 10
0.0
 20
0.0
 30
0.0
  9
$USERI1
 70
     0
  9
$USERI2
 70
     0
  9
$USERI3
 70
     0
  9
$USERI4
 70
     0
  9
$USERI5
 70
     0
  9
$USERR1
 40
0.0
  9
$USERR2
 40
0.0
  9
$USERR3
 40
0.0
  9
$USERR4
 40
0.0
  9
$USERR5
 40
0.0
  9
$WORLDVIEW
 70
     1
  9
$SHADEDGE
 70
     3
  9
$SHADEDIF
 70
    70
  9
$TILEMODE
 70
     1
  9
$MAXACTVP
 70
    64
  9
$PINSBASE
 10
0.0
 20
0.0
 30
0.0
  9
$PLIMCHECK
 70
     0
  9
$PEXTMIN
 10
1.000000000000000E+20
 20
1.000000000000000E+20
 30
1.000000000000000E+20
  9
$PEXTMAX
 10
-1.000000000000000E+20
 20
-1.000000000000000E+20
 30
-1.000000000000000E+20
  9
$PLIMMIN
 10
0.0
 20
0.0
  9
$PLIMMAX
 10
12.0
 20
9.0
  9
$UNITMODE
 70
     0
  9
$VISRETAIN
 70
     1
  9
$PLINEGEN
 70
     0
  9
$PSLTSCALE
 70
     1
  9
$TREEDEPTH
 70
  3020
  9
$CMLSTYLE
  2
Standard
  9
$CMLJUST
 70
     0
  9
$CMLSCALE
 40
1.0
  9
$PROXYGRAPHICS
 70
     1
  9
$MEASUREMENT
 70
     0
  9
$CELWEIGHT
370
    -1
  9
$ENDCAPS
280
     0
  9
$JOINSTYLE
280
     0
  9
$LWDISPLAY
290
     0
  9
$INSUNITS
 70
     1
  9
$HYPERLINKBASE
  1

  9
$STYLESHEET
  1
Monochrome.ctb
  9
$XEDIT
290
     1
  9
$CEPSNTYPE
380
     0
  9
$PSTYLEMODE
290
     1
  9
$FINGERPRINTGUID
  2
{168A8766-4015-4ABD-915A-AD1ECBE2E3C2}
  9
$VERSIONGUID
  2
{86993773-A1E8-4E6F-A43D-47BCA2526B72}
  9
$EXTNAMES
290
     1
  9
$PSVPSCALE
 40
0.0
  9
$OLESTARTUP
290
     0
  0
ENDSEC
  0
SECTION
  2
CLASSES
  0
CLASS
  1
ACDBDICTIONARYWDFLT
  2
AcDbDictionaryWithDefault
  3
ObjectDBX Classes
 90
        0
280
     0
281
     0
  0
CLASS
  1
VISUALSTYLE
  2
AcDbVisualStyle
  3
ObjectDBX Classes
 90
     4095
280
     0
281
     0
  0
CLASS
  1
DIMASSOC
  2
AcDbDimAssoc
  3
"AcDbDimAssoc|Product Desc:     AcDim ARX App For Dimension|Company:          Autodesk, Inc.|WEB Address:      www.autodesk.com"
 90
        0
280
     0
281
     0
  0
CLASS
  1
MATERIAL
  2
AcDbMaterial
  3
ObjectDBX Classes
 90
     1024
280
     0
281
     0
  0
CLASS
  1
TABLESTYLE
  2
AcDbTableStyle
  3
ObjectDBX Classes
 90
     4095
280
     0
281
     0
  0
CLASS
  1
DICTIONARYVAR
  2
AcDbDictionaryVar
  3
ObjectDBX Classes
 90
        0
280
     0
281
     0
  0
CLASS
  1
SORTENTSTABLE
  2
AcDbSortentsTable
  3
ObjectDBX Classes
 90
        0
280
     0
281
     0
  0
CLASS
  1
ACDBPLACEHOLDER
  2
AcDbPlaceHolder
  3
ObjectDBX Classes
 90
        0
280
     0
281
     0
  0
CLASS
  1
LAYOUT
  2
AcDbLayout
  3
ObjectDBX Classes
 90
        0
280
     0
281
     0
  0
ENDSEC
  0
SECTION
  2
TABLES
  0
TABLE
  2
VPORT
  5
8
102
{ACAD_XDICTIONARY
360
520C
102
}
330
0
100
AcDbSymbolTable
 70
     1
  0
VPORT
  5
27
330
8
100
AcDbSymbolTableRecord
100
AcDbViewportTableRecord
  2
*Active
 70
     0
 10
0.0
 20
0.0
 11
1.0
 21
1.0
 12
679.0
 22
456.25
 13
0.0
 23
0.0
 14
0.5
 24
0.5
 15
0.5
 25
0.5
 16
0.0
 26
0.0
 36
1.0
 17
0.0
 27
0.0
 37
0.0
 40
829.5
 41
4.137134708492332
 42
50.0
 43
0.0
 44
0.0
 50
0.0
 51
0.0
 71
     0
 72
   100
 73
     1
 74
     3
 75
     1
 76
     0
 77
     0
 78
     0
281
     0
 65
     1
110
0.0
120
0.0
130
0.0
111
1.0
121
0.0
131
0.0
112
0.0
122
1.0
132
0.0
 79
     0
146
0.0
  0
ENDTAB
  0
TABLE
  2
STYLE
  5
3
330
0
100
AcDbSymbolTable
 70
     5
  0
STYLE
  5
11
330
3
100
AcDbSymbolTableRecord
100
AcDbTextStyleTableRecord
  2
Standard
 70
     0
 40
0.0
 41
1.0
 50
0.0
 71
     0
 42
0.2
  3
txt
  4

  0
STYLE
  5
5A
330
3
100
AcDbSymbolTableRecord
100
AcDbTextStyleTableRecord
  2
样式 8
 70
     0
 40
10.0
 41
0.7
 50
0.0
 71
     0
 42
10.0
  3
txt.shx
  4
gbcbig.shx
  0
STYLE
  5
117
330
3
100
AcDbSymbolTableRecord
100
AcDbTextStyleTableRecord
  2
样式 1
 70
     0
 40
5.0
 41
1.0
 50
0.0
 71
     0
 42
5.0
  3
txt.shx
  4
gbcbig.shx
  0
STYLE
  5
356
330
3
100
AcDbSymbolTableRecord
100
AcDbTextStyleTableRecord
  2
样式 2
 70
     0
 40
0.0
 41
0.35
 50
0.0
 71
     0
 42
2.5
  3
txt.shx
  4
gbcbig.shx
  0
STYLE
  5
4E6
330
3
100
AcDbSymbolTableRecord
100
AcDbTextStyleTableRecord
  2
样式 3
 70
     0
 40
3.5
 41
0.7
 50
0.0
 71
     0
 42
5.0
  3
txt.shx
  4
gbcbig.shx
  0
ENDTAB
  0
TABLE
  2
LTYPE
  5
5
330
0
100
AcDbSymbolTable
 70
     6
  0
LTYPE
  5
14
330
5
100
AcDbSymbolTableRecord
100
AcDbLinetypeTableRecord
  2
ByBlock
 70
     0
  3

 72
    65
 73
     0
 40
0.0
  0
LTYPE
  5
15
330
5
100
AcDbSymbolTableRecord
100
AcDbLinetypeTableRecord
  2
ByLayer
 70
     0
  3

 72
    65
 73
     0
 40
0.0
  0
LTYPE
  5
16
330
5
100
AcDbSymbolTableRecord
100
AcDbLinetypeTableRecord
  2
Continuous
 70
     0
  3
Solid line
 72
    65
 73
     0
 40
0.0
  0
LTYPE
  5
5B
330
5
100
AcDbSymbolTableRecord
100
AcDbLinetypeTableRecord
  2
CENTERX2
 70
     0
  3
Center (2x) ________  __  ________  __  _____
 72
    65
 73
     4
 40
101.6
 49
63.5
 74
     4
 75
     0
340
0
 46
1.0
 50
0.0
 44
0.0
 45
0.0
 49
-12.7
 74
     4
 75
     0
340
0
 46
1.0
 50
0.0
 44
0.0
 45
0.0
 49
12.7
 74
     4
 75
     0
340
0
 46
1.0
 50
0.0
 44
0.0
 45
0.0
 49
-12.7
 74
     4
 75
     0
340
0
 46
1.0
 50
0.0
 44
0.0
 45
0.0
  0
LTYPE
  5
192
330
5
100
AcDbSymbolTableRecord
100
AcDbLinetypeTableRecord
  2
CENTER
 70
     0
  3
Center ____ _ ____ _ ____ _ ____ _ ____ _ ____
 72
    65
 73
     4
 40
50.8
 49
31.75
 74
     4
 75
     0
340
0
 46
1.0
 50
0.0
 44
0.0
 45
0.0
 49
-6.35
 74
     4
 75
     0
340
0
 46
1.0
 50
0.0
 44
0.0
 45
0.0
 49
6.35
 74
     4
 75
     0
340
0
 46
1.0
 50
0.0
 44
0.0
 45
0.0
 49
-6.35
 74
     4
 75
     0
340
0
 46
1.0
 50
0.0
 44
0.0
 45
0.0
  0
LTYPE
  5
112E
330
5
100
AcDbSymbolTableRecord
100
AcDbLinetypeTableRecord
  2
DASHED
 70
     0
  3
Dashed __ __ __ __ __ __ __ __ __ __ __ __ __ _
 72
    65
 73
     2
 40
19.05
 49
12.7
 74
     4
 75
     0
340
0
 46
1.0
 50
0.0
 44
0.0
 45
0.0
 49
-6.35
 74
     4
 75
     0
340
0
 46
1.0
 50
0.0
 44
0.0
 45
0.0
  0
LTYPE
  5
121B
330
5
100
AcDbSymbolTableRecord
100
AcDbLinetypeTableRecord
  2
ACAD_ISO02W100
 70
     0
  3
ISO dash __ __ __ __ __ __ __ __ __ __ __ __ __
 72
    65
 73
     2
 40
15.0
 49
12.0
 74
     4
 75
     0
340
0
 46
1.0
 50
0.0
 44
0.0
 45
0.0
 49
-3.0
 74
     4
 75
     0
340
0
 46
1.0
 50
0.0
 44
0.0
 45
0.0
  0
LTYPE
  5
121C
330
5
100
AcDbSymbolTableRecord
100
AcDbLinetypeTableRecord
  2
DIVIDE
 70
     0
  3
Divide ____ . . ____ . . ____ . . ____ . . ____
 72
    65
 73
     6
 40
31.75
 49
12.7
 74
     4
 75
     0
340
0
 46
1.0
 50
0.0
 44
0.0
 45
0.0
 49
-6.35
 74
     4
 75
     0
340
0
 46
1.0
 50
0.0
 44
0.0
 45
0.0
 49
0.0
 74
     4
 75
     0
340
0
 46
1.0
 50
0.0
 44
0.0
 45
0.0
 49
-6.35
 74
     4
 75
     0
340
0
 46
1.0
 50
0.0
 44
0.0
 45
0.0
 49
0.0
 74
     4
 75
     0
340
0
 46
1.0
 50
0.0
 44
0.0
 45
0.0
 49
-6.35
 74
     4
 75
     0
340
0
 46
1.0
 50
0.0
 44
0.0
 45
0.0
  0
ENDTAB
  0
TABLE
  2
LAYER
  5
2
102
{ACAD_XDICTIONARY
360
36E2
102
}
330
0
100
AcDbSymbolTable
 70
    17
  0
LAYER
  5
10
330
2
100
AcDbSymbolTableRecord
100
AcDbLayerTableRecord
  2
0
 70
     0
 62
     7
  6
Continuous
370
    -3
390
F
  0
LAYER
  5
5C
330
2
100
AcDbSymbolTableRecord
100
AcDbLayerTableRecord
  2
粗实线
 70
     0
 62
     7
  6
Continuous
370
    30
390
F
1001
AcAecLayerStandard
1000

1000

  0
LAYER
  5
5D
330
2
100
AcDbSymbolTableRecord
100
AcDbLayerTableRecord
  2
中心线
 70
     0
 62
     1
  6
CENTERX2
370
    15
390
F
1001
AcAecLayerStandard
1000

1000

  0
LAYER
  5
5E
330
2
100
AcDbSymbolTableRecord
100
AcDbLayerTableRecord
  2
标注
 70
     0
 62
     4
  6
Continuous
370
    15
390
F
1001
AcAecLayerStandard
1000

1000

  0
LAYER
  5
5F
330
2
100
AcDbSymbolTableRecord
100
AcDbLayerTableRecord
  2
Defpoints
 70
     0
 62
     7
  6
Continuous
290
     0
370
    -3
390
F
  0
LAYER
  5
118
330
2
100
AcDbSymbolTableRecord
100
AcDbLayerTableRecord
  2
图层1粗线
 70
     0
 62
     7
  6
Continuous
370
    -3
390
F
1001
AcAecLayerStandard
1000

1000

  0
LAYER
  5
193
330
2
100
AcDbSymbolTableRecord
100
AcDbLayerTableRecord
  2
细实线
 70
     0
 62
     3
  6
Continuous
370
    15
390
F
1001
AcAecLayerStandard
1000

1000

  0
LAYER
  5
357
330
2
100
AcDbSymbolTableRecord
100
AcDbLayerTableRecord
  2
图层2
 70
     0
 62
     7
  6
Continuous
370
    30
390
F
1001
AcAecLayerStandard
1000

1000

  0
LAYER
  5
358
330
2
100
AcDbSymbolTableRecord
100
AcDbLayerTableRecord
  2
图层3
 70
     0
 62
     7
  6
Continuous
370
    18
390
F
1001
AcAecLayerStandard
1000

1000

  0
LAYER
  5
4E7
330
2
100
AcDbSymbolTableRecord
100
AcDbLayerTableRecord
  2
文字
 70
     0
 62
     1
  6
Continuous
370
    15
390
F
1001
AcAecLayerStandard
1000

1000

  0
LAYER
  5
4E8
330
2
100
AcDbSymbolTableRecord
100
AcDbLayerTableRecord
  2
不可见
 70
     0
 62
     2
  6
Continuous
290
     0
370
    15
390
F
1001
AcAecLayerStandard
1000

1000

  0
LAYER
  5
4E9
330
2
100
AcDbSymbolTableRecord
100
AcDbLayerTableRecord
  2
图层2细线
 70
     0
 62
     3
  6
Continuous
370
    -3
390
F
1001
AcAecLayerStandard
1000

1000

  0
LAYER
  5
4EA
330
2
100
AcDbSymbolTableRecord
100
AcDbLayerTableRecord
  2
图框线
 70
     0
 62
     7
  6
Continuous
370
    13
390
F
1001
AcAecLayerStandard
1000

1000

  0
LAYER
  5
4EB
330
2
100
AcDbSymbolTableRecord
100
AcDbLayerTableRecord
  2
图层 1
 70
     0
 62
     7
  6
Continuous
370
    -3
390
F
  0
LAYER
  5
112F
330
2
100
AcDbSymbolTableRecord
100
AcDbLayerTableRecord
  2
图层1
 70
     0
 62
     7
  6
DASHED
370
    25
390
F
1001
AcAecLayerStandard
1000

1000

  0
LAYER
  5
121D
330
2
100
AcDbSymbolTableRecord
100
AcDbLayerTableRecord
  2
虚线
 70
     0
 62
     2
  6
ACAD_ISO02W100
370
    15
390
F
1001
AcAecLayerStandard
1000

1000

  0
LAYER
  5
121E
330
2
100
AcDbSymbolTableRecord
100
AcDbLayerTableRecord
  2
剖切线
 70
     0
 62
   241
  6
Continuous
370
    15
390
F
1001
AcAecLayerStandard
1000

1000

  0
ENDTAB
  0
TABLE
  2
VIEW
  5
6
330
0
100
AcDbSymbolTable
 70
     0
  0
ENDTAB
  0
TABLE
  2
UCS
  5
7
330
0
100
AcDbSymbolTable
 70
     0
  0
ENDTAB
  0
TABLE
  2
APPID
  5
9
330
0
100
AcDbSymbolTable
 70
    45
  0
APPID
  5
12
330
9
100
AcDbSymbolTableRecord
100
AcDbRegAppTableRecord
  2
ACAD
 70
     0
  0
APPID
  5
3B
330
9
100
AcDbSymbolTableRecord
100
AcDbRegAppTableRecord
  2
ACAD_PSEXT
 70
     0
  0
APPID
  5
3C
330
9
100
AcDbSymbolTableRecord
100
AcDbRegAppTableRecord
  2
AcAecLayerStandard
 70
     0
  0
APPID
  5
3D
330
9
100
AcDbSymbolTableRecord
100
AcDbRegAppTableRecord
  2
ACAD_DSTYLE_DIMTEXT_FILL
 70
     0
  0
APPID
  5
3E
330
9
100
AcDbSymbolTableRecord
100
AcDbRegAppTableRecord
  2
DCO15
 70
     0
  0
APPID
  5
3F
330
9
100
AcDbSymbolTableRecord
100
AcDbRegAppTableRecord
  2
ACAD_DSTYLE_DIMEXT_LENGTH
 70
     0
  0
APPID
  5
40
330
9
100
AcDbSymbolTableRecord
100
AcDbRegAppTableRecord
  2
ACAD_DSTYLE_DIMEXT_ENABLED
 70
     0
  0
APPID
  5
41
330
9
100
AcDbSymbolTableRecord
100
AcDbRegAppTableRecord
  2
ACAD_DSTYLE_DIM_LINETYPE
 70
     0
  0
APPID
  5
42
330
9
100
AcDbSymbolTableRecord
100
AcDbRegAppTableRecord
  2
ACAD_DSTYLE_DIM_EXT1_LINETYPE
 70
     0
  0
APPID
  5
43
330
9
100
AcDbSymbolTableRecord
100
AcDbRegAppTableRecord
  2
ACAD_DSTYLE_DIM_EXT2_LINETYPE
 70
     0
  0
APPID
  5
44
330
9
100
AcDbSymbolTableRecord
100
AcDbRegAppTableRecord
  2
ACAD_EXEMPT_FROM_CAD_STANDARDS
 70
     0
  0
APPID
  5
45
330
9
100
AcDbSymbolTableRecord
100
AcDbRegAppTableRecord
  2
AcadAnnoPO
 70
     0
  0
APPID
  5
46
330
9
100
AcDbSymbolTableRecord
100
AcDbRegAppTableRecord
  2
AcadAnnotative
 70
     0
  0
APPID
  5
47
330
9
100
AcDbSymbolTableRecord
100
AcDbRegAppTableRecord
  2
ACAD_DSTYLE_DIMJAG
 70
     0
  0
APPID
  5
48
330
9
100
AcDbSymbolTableRecord
100
AcDbRegAppTableRecord
  2
ACAD_DSTYLE_DIMTALN
 70
     0
  0
APPID
  5
49
330
9
100
AcDbSymbolTableRecord
100
AcDbRegAppTableRecord
  2
ACAD_MLEADERVER
 70
     0
  0
APPID
  5
4A
330
9
100
AcDbSymbolTableRecord
100
AcDbRegAppTableRecord
  2
ACAD_DSTYLE_DIMRADIAL_EXTENSION
 70
     0
  0
APPID
  5
4B
330
9
100
AcDbSymbolTableRecord
100
AcDbRegAppTableRecord
  2
ACAD_DSTYLE_DIMBREAK
 70
     0
  0
APPID
  5
4C
330
9
100
AcDbSymbolTableRecord
100
AcDbRegAppTableRecord
  2
ACAD_DSTYLE_DIMARC_LENGTH_SYMBOL
 70
     0
  0
APPID
  5
4D
330
9
100
AcDbSymbolTableRecord
100
AcDbRegAppTableRecord
  2
ACAD_DSTYLE_DIMJOGGED_JOGANGLE_SYMBOL
 70
     0
  0
APPID
  5
4E
330
9
100
AcDbSymbolTableRecord
100
AcDbRegAppTableRecord
  2
MCAD_NO_VIS
 70
     0
  0
APPID
  5
4F
330
9
100
AcDbSymbolTableRecord
100
AcDbRegAppTableRecord
  2
ACAD_TEMP_GRAPHIC
 70
     0
  0
APPID
  5
50
330
9
100
AcDbSymbolTableRecord
100
AcDbRegAppTableRecord
  2
AD_DRAW
 70
     0
  0
APPID
  5
51
330
9
100
AcDbSymbolTableRecord
100
AcDbRegAppTableRecord
  2
ACATTRIBSERVICES
 70
     0
  0
APPID
  5
52
330
9
100
AcDbSymbolTableRecord
100
AcDbRegAppTableRecord
  2
DESIGNERASSEMBLIES
 70
     0
  0
APPID
  5
53
330
9
100
AcDbSymbolTableRecord
100
AcDbRegAppTableRecord
  2
ACADM_DIM_EDIT
 70
     0
  0
APPID
  5
54
330
9
100
AcDbSymbolTableRecord
100
AcDbRegAppTableRecord
  2
AMDT_DM_ADJ
 70
     0
  0
APPID
  5
55
330
9
100
AcDbSymbolTableRecord
100
AcDbRegAppTableRecord
  2
GENIUS_GENODEF_13
 70
     0
  0
APPID
  5
56
330
9
100
AcDbSymbolTableRecord
100
AcDbRegAppTableRecord
  2
GENIUS_GENOBJ-N-FIL_13
 70
     0
  0
APPID
  5
57
330
9
100
AcDbSymbolTableRecord
100
AcDbRegAppTableRecord
  2
ACAD_DIMASSOC_CALC_DIMLFAC
 70
     0
  0
APPID
  5
58
330
9
100
AcDbSymbolTableRecord
100
AcDbRegAppTableRecord
  2
ACAD_DIMASSOC_DIMLFAC
 70
     0
  0
APPID
  5
59
330
9
100
AcDbSymbolTableRecord
100
AcDbRegAppTableRecord
  2
ACAD_DIMASSOC_OVERRIDDEN_DIMLFAC
 70
     0
  0
APPID
  5
4E5
330
9
100
AcDbSymbolTableRecord
100
AcDbRegAppTableRecord
  2
CAXA
 70
     0
  0
APPID
  5
1BF7
330
9
100
AcDbSymbolTableRecord
100
AcDbRegAppTableRecord
  2
AVE_RENDER
 70
     0
  0
APPID
  5
1BF8
330
9
100
AcDbSymbolTableRecord
100
AcDbRegAppTableRecord
  2
AVE_ENTITY_MATERIAL
 70
     0
  0
APPID
  5
1BF9
330
9
100
AcDbSymbolTableRecord
100
AcDbRegAppTableRecord
  2
AVE_FINISH
 70
     0
  0
APPID
  5
1BFA
330
9
100
AcDbSymbolTableRecord
100
AcDbRegAppTableRecord
  2
AVE_MATERIAL
 70
     0
  0
APPID
  5
1BFB
330
9
100
AcDbSymbolTableRecord
100
AcDbRegAppTableRecord
  2
AVE_GLOBAL
 70
     0
  0
APPID
  5
1BFC
330
9
100
AcDbSymbolTableRecord
100
AcDbRegAppTableRecord
  2
GENIUS_GENBLLY_14
 70
     0
  0
APPID
  5
1BFD
330
9
100
AcDbSymbolTableRecord
100
AcDbRegAppTableRecord
  2
ODA
 70
     0
  0
APPID
  5
1BFE
330
9
100
AcDbSymbolTableRecord
100
AcDbRegAppTableRecord
  2
RAK
 70
     0
  0
APPID
  5
1BFF
330
9
100
AcDbSymbolTableRecord
100
AcDbRegAppTableRecord
  2
AcDbDynamicBlockGUID
 70
     0
  0
APPID
  5
1C00
330
9
100
AcDbSymbolTableRecord
100
AcDbRegAppTableRecord
  2
AcDbBlockRepETag
 70
     0
  0
APPID
  5
1C01
330
9
100
AcDbSymbolTableRecord
100
AcDbRegAppTableRecord
  2
ACAUTHENVIRON
 70
     0
  0
APPID
  5
1C02
330
9
100
AcDbSymbolTableRecord
100
AcDbRegAppTableRecord
  2
AcDbDynamicBlockTrueName
 70
     0
  0
ENDTAB
  0
TABLE
  2
DIMSTYLE
  5
A
330
0
100
AcDbSymbolTable
 70
     5
100
AcDbDimStyleTable
  0
DIMSTYLE
105
25
330
A
100
AcDbSymbolTableRecord
100
AcDbDimStyleTableRecord
  2
Standard
 70
     0
340
11
  0
DIMSTYLE
105
60
330
A
100
AcDbSymbolTableRecord
100
AcDbDimStyleTableRecord
  2
副本 (3) ISO-25 4
 70
     0
 41
14.0
 42
0.0
 43
10.0
 44
6.0
 73
     0
 74
     0
 77
     1
 78
     8
140
20.0
141
7.5
143
0.03937007874016
147
1.5
171
     3
172
     1
271
     1
272
     1
274
     3
283
     0
284
     8
340
11
  0
DIMSTYLE
105
119
330
A
100
AcDbSymbolTableRecord
100
AcDbDimStyleTableRecord
  2
副本 ISO-25
 70
     0
 41
12.0
 42
0.0
 43
10.0
 44
5.0
 73
     0
 74
     0
 77
     1
 78
     8
140
18.0
141
1.5
143
0.03937007874016
147
1.5
171
     3
172
     1
271
     1
272
     1
274
     3
278
    44
283
     0
284
     8
340
11
  0
DIMSTYLE
105
359
330
A
100
AcDbSymbolTableRecord
100
AcDbDimStyleTableRecord
  2
ISO-25
 70
     0
 41
17.0
 42
3.0
 43
3.75
 44
1.25
 73
     0
 77
     1
 78
     8
140
19.0
141
80.0
143
0.03937007874016
147
7.0
170
     1
171
     3
172
     1
271
     2
272
     2
273
     7
274
     3
283
     0
284
     8
340
11
  0
DIMSTYLE
105
4EC
330
A
100
AcDbSymbolTableRecord
100
AcDbDimStyleTableRecord
  2
英寸
 70
     0
 41
12.0
 42
0.0
 43
10.0
 44
3.75
 73
     0
 74
     0
 77
     1
 78
     8
140
16.0
141
7.5
143
0.03937007874016
147
2.0
170
     1
171
     3
172
     1
179
     1
271
     1
272
     1
273
     7
274
     3
283
     0
284
     8
340
11
  0
ENDTAB
  0
TABLE
  2
BLOCK_RECORD
  5
1
330
0
100
AcDbSymbolTable
 70
    38
  0
BLOCK_RECORD
  5
1F
330
1
100
AcDbSymbolTableRecord
100
AcDbBlockTableRecord
  2
*Model_Space
340
22
  0
BLOCK_RECORD
  5
1B
330
1
100
AcDbSymbolTableRecord
100
AcDbBlockTableRecord
  2
*Paper_Space
340
1E
  0
BLOCK_RECORD
  5
23
330
1
100
AcDbSymbolTableRecord
100
AcDbBlockTableRecord
  2
*Paper_Space0
340
24
  0
BLOCK_RECORD
  5
4EC5
330
1
100
AcDbSymbolTableRecord
100
AcDbBlockTableRecord
  2
*D22
340
0
  0
BLOCK_RECORD
  5
4ED1
330
1
100
AcDbSymbolTableRecord
100
AcDbBlockTableRecord
  2
*D23
340
0
  0
BLOCK_RECORD
  5
4EDD
330
1
100
AcDbSymbolTableRecord
100
AcDbBlockTableRecord
  2
*D24
340
0
  0
BLOCK_RECORD
  5
4EE9
330
1
100
AcDbSymbolTableRecord
100
AcDbBlockTableRecord
  2
*D25
340
0
  0
BLOCK_RECORD
  5
4EF5
330
1
100
AcDbSymbolTableRecord
100
AcDbBlockTableRecord
  2
*D26
340
0
  0
BLOCK_RECORD
  5
4F01
330
1
100
AcDbSymbolTableRecord
100
AcDbBlockTableRecord
  2
*D27
340
0
  0
BLOCK_RECORD
  5
504C
330
1
100
AcDbSymbolTableRecord
100
AcDbBlockTableRecord
  2
*D28
340
0
  0
BLOCK_RECORD
  5
505A
330
1
100
AcDbSymbolTableRecord
100
AcDbBlockTableRecord
  2
*D29
340
0
  0
ENDTAB
  0
ENDSEC
  0
SECTION
  2
BLOCKS
  0
BLOCK
  5
20
330
1F
100
AcDbEntity
  8
0
370
    -1
100
AcDbBlockBegin
  2
*Model_Space
 70
     0
 71
     0
 10
0.0
 20
0.0
 30
0.0
  3
*Model_Space
  1

  0
ENDBLK
  5
21
330
1F
100
AcDbEntity
  8
0
370
    -1
100
AcDbBlockEnd
  0
BLOCK
  5
1C
330
1B
100
AcDbEntity
 67
     1
  8
0
370
    -1
100
AcDbBlockBegin
  2
*Paper_Space
 70
     0
 71
     0
 10
0.0
 20
0.0
 30
0.0
  3
*Paper_Space
  1

  0
ENDBLK
  5
1D
330
1B
100
AcDbEntity
 67
     1
  8
0
370
    -1
100
AcDbBlockEnd
  0
BLOCK
  5
39
330
23
100
AcDbEntity
  8
0
370
    -1
100
AcDbBlockBegin
  2
*Paper_Space0
 70
     0
 71
     0
 10
0.0
 20
0.0
 30
0.0
  3
*Paper_Space0
  1

  0
ENDBLK
  5
3A
330
23
100
AcDbEntity
  8
0
370
    -1
100
AcDbBlockEnd
  0
BLOCK
  5
4ECF
330
4EC5
100
AcDbEntity
  8
0
370
    -1
100
AcDbBlockBegin
  2
*D22
 70
     1
 71
     0
 10
0.0
 20
0.0
 30
0.0
  3
*D22
  1

  0
LINE
  5
507E
330
4EC5
100
AcDbEntity
  8
标注
 62
     0
370
    -2
100
AcDbLine
 10
788.6255154849541
 20
698.7531666736
 30
0.0
 11
788.6255154849541
 21
761.9106769779117
 31
0.0
  0
LINE
  5
507F
330
4EC5
100
AcDbEntity
  8
标注
 62
     0
370
    -2
100
AcDbLine
 10
458.6255154849496
 20
706.7531666736
 30
0.0
 11
458.6255154849496
 21
761.9106769779117
 31
0.0
  0
LINE
  5
5080
330
4EC5
100
AcDbEntity
  8
标注
 62
     0
370
     0
100
AcDbLine
 10
783.6255154849541
 20
758.1606769779117
 30
0.0
 11
463.6255154849496
 21
758.1606769779117
 31
0.0
  0
SOLID
  5
5081
330
4EC5
100
AcDbEntity
  8
标注
 62
     0
370
    -1
100
AcDbTrace
 10
783.6255154849541
 20
758.9940103112451
 30
0.0
 11
783.6255154849541
 21
757.3273436445784
 31
0.0
 12
788.6255154849541
 22
758.1606769779117
 32
0.0
 13
788.6255154849541
 23
758.1606769779117
 33
0.0
  0
SOLID
  5
5082
330
4EC5
100
AcDbEntity
  8
标注
 62
     0
370
    -1
100
AcDbTrace
 10
463.6255154849496
 20
758.9940103112451
 30
0.0
 11
463.6255154849496
 21
757.3273436445784
 31
0.0
 12
458.6255154849496
 22
758.1606769779117
 32
0.0
 13
458.6255154849496
 23
758.1606769779117
 33
0.0
  0
MTEXT
  5
5083
330
4EC5
100
AcDbEntity
  8
标注
 62
     0
370
    -1
100
AcDbMText
 10
623.6255154849778
 20
766.5692717937371
 30
0.0
 40
10.0
 41
0.0
 71
     5
 72
     1
  1
{\fArial|b0|i0|c0|p34;330 [13]}
 73
     1
 44
1.0
  0
POINT
  5
5084
330
4EC5
100
AcDbEntity
  8
Defpoints
 62
     0
370
    -1
100
AcDbPoint
 10
788.6255154849541
 20
698.7531666736
 30
0.0
  0
POINT
  5
5085
330
4EC5
100
AcDbEntity
  8
Defpoints
 62
     0
370
    -1
100
AcDbPoint
 10
458.6255154849496
 20
706.7531666736
 30
0.0
  0
POINT
  5
5086
330
4EC5
100
AcDbEntity
  8
Defpoints
 62
     0
370
    -1
100
AcDbPoint
 10
458.6255154849496
 20
758.1606769779117
 30
0.0
  0
ENDBLK
  5
4ED0
330
4EC5
100
AcDbEntity
  8
0
370
    -1
100
AcDbBlockEnd
  0
BLOCK
  5
4EDB
330
4ED1
100
AcDbEntity
  8
0
370
    -1
100
AcDbBlockBegin
  2
*D23
 70
     1
 71
     0
 10
0.0
 20
0.0
 30
0.0
  3
*D23
  1

  0
LINE
  5
5087
330
4ED1
100
AcDbEntity
  8
标注
 62
     0
370
    -2
100
AcDbLine
 10
455.365041332791
 20
698.0682533141269
 30
0.0
 11
386.3755091578897
 21
698.0682533141269
 31
0.0
  0
LINE
  5
5088
330
4ED1
100
AcDbEntity
  8
标注
 62
     0
370
    -2
100
AcDbLine
 10
456.865041332791
 20
280.0682533141267
 30
0.0
 11
386.3755091578896
 21
280.0682533141267
 31
0.0
  0
LINE
  5
5089
330
4ED1
100
AcDbEntity
  8
标注
 62
     0
370
     0
100
AcDbLine
 10
390.1255091578897
 20
693.0682533141269
 30
0.0
 11
390.1255091578896
 21
285.0682533141267
 31
0.0
  0
SOLID
  5
508A
330
4ED1
100
AcDbEntity
  8
标注
 62
     0
370
    -1
100
AcDbTrace
 10
389.2921758245564
 20
693.0682533141269
 30
0.0
 11
390.958842491223
 21
693.0682533141269
 31
0.0
 12
390.1255091578897
 22
698.0682533141269
 32
0.0
 13
390.1255091578897
 23
698.0682533141269
 33
0.0
  0
SOLID
  5
508B
330
4ED1
100
AcDbEntity
  8
标注
 62
     0
370
    -1
100
AcDbTrace
 10
389.2921758245563
 20
285.0682533141267
 30
0.0
 11
390.9588424912229
 21
285.0682533141267
 31
0.0
 12
390.1255091578896
 22
280.0682533141267
 32
0.0
 13
390.1255091578896
 23
280.0682533141267
 33
0.0
  0
MTEXT
  5
508C
330
4ED1
100
AcDbEntity
  8
标注
 62
     0
370
    -1
100
AcDbMText
 10
381.6521121592539
 20
495.0682533141227
 30
0.0
 40
10.0
 41
0.0
 71
     5
 72
     1
  1
{\fArial|b0|i0|c0|p34;418 [16 1/2]}
 11
6.123233995736766E-17
 21
1.0
 31
0.0
 73
     1
 44
1.0
  0
POINT
  5
508D
330
4ED1
100
AcDbEntity
  8
Defpoints
 62
     0
370
    -1
100
AcDbPoint
 10
455.365041332791
 20
698.0682533141269
 30
0.0
  0
POINT
  5
508E
330
4ED1
100
AcDbEntity
  8
Defpoints
 62
     0
370
    -1
100
AcDbPoint
 10
456.865041332791
 20
280.0682533141267
 30
0.0
  0
POINT
  5
508F
330
4ED1
100
AcDbEntity
  8
Defpoints
 62
     0
370
    -1
100
AcDbPoint
 10
390.1255091578896
 20
280.0682533141267
 30
0.0
  0
ENDBLK
  5
4EDC
330
4ED1
100
AcDbEntity
  8
0
370
    -1
100
AcDbBlockEnd
  0
BLOCK
  5
4EE7
330
4EDD
100
AcDbEntity
  8
0
370
    -1
100
AcDbBlockBegin
  2
*D24
 70
     1
 71
     0
 10
0.0
 20
0.0
 30
0.0
  3
*D24
  1

  0
LINE
  5
5090
330
4EDD
100
AcDbEntity
  8
标注
 62
     0
370
    -2
100
AcDbLine
 10
794.9755154849579
 20
699.2531666736
 30
0.0
 11
794.9755154849579
 21
783.9106769779117
 31
0.0
  0
LINE
  5
5091
330
4EDD
100
AcDbEntity
  8
标注
 62
     0
370
    -2
100
AcDbLine
 10
452.2755154849513
 20
707.7531666736
 30
0.0
 11
452.2755154849513
 21
783.9106769779117
 31
0.0
  0
LINE
  5
5092
330
4EDD
100
AcDbEntity
  8
标注
 62
     0
370
     0
100
AcDbLine
 10
789.9755154849579
 20
780.1606769779117
 30
0.0
 11
457.2755154849513
 21
780.1606769779117
 31
0.0
  0
SOLID
  5
5093
330
4EDD
100
AcDbEntity
  8
标注
 62
     0
370
    -1
100
AcDbTrace
 10
789.9755154849579
 20
780.9940103112451
 30
0.0
 11
789.9755154849579
 21
779.3273436445784
 31
0.0
 12
794.9755154849579
 22
780.1606769779117
 32
0.0
 13
794.9755154849579
 23
780.1606769779117
 33
0.0
  0
SOLID
  5
5094
330
4EDD
100
AcDbEntity
  8
标注
 62
     0
370
    -1
100
AcDbTrace
 10
457.2755154849513
 20
780.9940103112451
 30
0.0
 11
457.2755154849513
 21
779.3273436445784
 31
0.0
 12
452.2755154849513
 22
780.1606769779117
 32
0.0
 13
452.2755154849513
 23
780.1606769779117
 33
0.0
  0
MTEXT
  5
5095
330
4EDD
100
AcDbEntity
  8
标注
 62
     0
370
    -1
100
AcDbMText
 10
623.6255050469954
 20
788.6340739765475
 30
0.0
 40
10.0
 41
0.0
 71
     5
 72
     1
  1
{\fArial|b0|i0|c0|p34;342.7 [13 1/2]}
 73
     1
 44
1.0
  0
POINT
  5
5096
330
4EDD
100
AcDbEntity
  8
Defpoints
 62
     0
370
    -1
100
AcDbPoint
 10
794.9755154849579
 20
699.2531666736
 30
0.0
  0
POINT
  5
5097
330
4EDD
100
AcDbEntity
  8
Defpoints
 62
     0
370
    -1
100
AcDbPoint
 10
452.2755154849513
 20
707.7531666736
 30
0.0
  0
POINT
  5
5098
330
4EDD
100
AcDbEntity
  8
Defpoints
 62
     0
370
    -1
100
AcDbPoint
 10
452.2755154849513
 20
780.1606769779117
 30
0.0
  0
ENDBLK
  5
4EE8
330
4EDD
100
AcDbEntity
  8
0
370
    -1
100
AcDbBlockEnd
  0
BLOCK
  5
4EF3
330
4EE9
100
AcDbEntity
  8
0
370
    -1
100
AcDbBlockBegin
  2
*D25
 70
     1
 71
     0
 10
0.0
 20
0.0
 30
0.0
  3
*D25
  1

  0
LINE
  5
5099
330
4EE9
100
AcDbEntity
  8
标注
 62
     0
370
    -2
100
AcDbLine
 10
455.865041332791
 20
704.4182533141249
 30
0.0
 11
362.3755091578897
 21
704.4182533141249
 31
0.0
  0
LINE
  5
509A
330
4EE9
100
AcDbEntity
  8
标注
 62
     0
370
    -2
100
AcDbLine
 10
457.365041332791
 20
273.7182533141295
 30
0.0
 11
362.3755091578896
 21
273.7182533141296
 31
0.0
  0
LINE
  5
509B
330
4EE9
100
AcDbEntity
  8
标注
 62
     0
370
     0
100
AcDbLine
 10
366.1255091578897
 20
699.4182533141249
 30
0.0
 11
366.1255091578896
 21
278.7182533141296
 31
0.0
  0
SOLID
  5
509C
330
4EE9
100
AcDbEntity
  8
标注
 62
     0
370
    -1
100
AcDbTrace
 10
365.2921758245564
 20
699.4182533141249
 30
0.0
 11
366.958842491223
 21
699.4182533141249
 31
0.0
 12
366.1255091578897
 22
704.4182533141249
 32
0.0
 13
366.1255091578897
 23
704.4182533141249
 33
0.0
  0
SOLID
  5
509D
330
4EE9
100
AcDbEntity
  8
标注
 62
     0
370
    -1
100
AcDbTrace
 10
365.2921758245563
 20
278.7182533141296
 30
0.0
 11
366.9588424912229
 21
278.7182533141296
 31
0.0
 12
366.1255091578896
 22
273.7182533141296
 32
0.0
 13
366.1255091578896
 23
273.7182533141296
 33
0.0
  0
MTEXT
  5
509E
330
4EE9
100
AcDbEntity
  8
标注
 62
     0
370
    -1
100
AcDbMText
 10
357.7169143420642
 20
495.0682533141232
 30
0.0
 40
10.0
 41
0.0
 71
     5
 72
     1
  1
{\fArial|b0|i0|c0|p34;430.7 [17]}
 11
6.123233995736766E-17
 21
1.0
 31
0.0
 73
     1
 44
1.0
  0
POINT
  5
509F
330
4EE9
100
AcDbEntity
  8
Defpoints
 62
     0
370
    -1
100
AcDbPoint
 10
455.865041332791
 20
704.4182533141249
 30
0.0
  0
POINT
  5
50A0
330
4EE9
100
AcDbEntity
  8
Defpoints
 62
     0
370
    -1
100
AcDbPoint
 10
457.365041332791
 20
273.7182533141295
 30
0.0
  0
POINT
  5
50A1
330
4EE9
100
AcDbEntity
  8
Defpoints
 62
     0
370
    -1
100
AcDbPoint
 10
366.1255091578896
 20
273.7182533141296
 30
0.0
  0
ENDBLK
  5
4EF4
330
4EE9
100
AcDbEntity
  8
0
370
    -1
100
AcDbBlockEnd
  0
BLOCK
  5
4EFF
330
4EF5
100
AcDbEntity
  8
0
370
    -1
100
AcDbBlockBegin
  2
*D26
 70
     1
 71
     0
 10
0.0
 20
0.0
 30
0.0
  3
*D26
  1

  0
LINE
  5
50A2
330
4EF5
100
AcDbEntity
  8
标注
 62
     0
370
    -2
100
AcDbLine
 10
782.2755154849576
 20
698.2531666736
 30
0.0
 11
782.2755154849576
 21
739.6794406087957
 31
0.0
  0
LINE
  5
50A3
330
4EF5
100
AcDbEntity
  8
标注
 62
     0
370
    -2
100
AcDbLine
 10
464.9755154849511
 20
707.2531666736
 30
0.0
 11
464.9755154849511
 21
739.6794406087957
 31
0.0
  0
LINE
  5
50A4
330
4EF5
100
AcDbEntity
  8
标注
 62
     0
370
     0
100
AcDbLine
 10
777.2755154849576
 20
735.9294406087957
 30
0.0
 11
469.9755154849511
 21
735.9294406087957
 31
0.0
  0
SOLID
  5
50A5
330
4EF5
100
AcDbEntity
  8
标注
 62
     0
370
    -1
100
AcDbTrace
 10
777.2755154849576
 20
736.7627739421291
 30
0.0
 11
777.2755154849576
 21
735.0961072754624
 31
0.0
 12
782.2755154849576
 22
735.9294406087957
 32
0.0
 13
782.2755154849576
 23
735.9294406087957
 33
0.0
  0
SOLID
  5
50A6
330
4EF5
100
AcDbEntity
  8
标注
 62
     0
370
    -1
100
AcDbTrace
 10
469.9755154849511
 20
736.7627739421291
 30
0.0
 11
469.9755154849511
 21
735.0961072754624
 31
0.0
 12
464.9755154849511
 22
735.9294406087957
 32
0.0
 13
464.9755154849511
 23
735.9294406087957
 33
0.0
  0
MTEXT
  5
50A7
330
4EF5
100
AcDbEntity
  8
标注
 62
     0
370
    -1
100
AcDbMText
 10
623.6255154849796
 20
744.4028376074315
 30
0.0
 40
10.0
 41
0.0
 71
     5
 72
     1
  1
{\fArial|b0|i0|c0|p34;317.3 [12 1/2]}
 73
     1
 44
1.0
  0
POINT
  5
50A8
330
4EF5
100
AcDbEntity
  8
Defpoints
 62
     0
370
    -1
100
AcDbPoint
 10
782.2755154849576
 20
698.2531666736
 30
0.0
  0
POINT
  5
50A9
330
4EF5
100
AcDbEntity
  8
Defpoints
 62
     0
370
    -1
100
AcDbPoint
 10
464.9755154849511
 20
707.2531666736
 30
0.0
  0
POINT
  5
50AA
330
4EF5
100
AcDbEntity
  8
Defpoints
 62
     0
370
    -1
100
AcDbPoint
 10
464.9755154849511
 20
735.9294406087957
 30
0.0
  0
ENDBLK
  5
4F00
330
4EF5
100
AcDbEntity
  8
0
370
    -1
100
AcDbBlockEnd
  0
BLOCK
  5
4F0B
330
4F01
100
AcDbEntity
  8
0
370
    -1
100
AcDbBlockBegin
  2
*D27
 70
     1
 71
     0
 10
0.0
 20
0.0
 30
0.0
  3
*D27
  1

  0
LINE
  5
50AB
330
4F01
100
AcDbEntity
  8
标注
 62
     0
370
    -2
100
AcDbLine
 10
454.365041332791
 20
691.7182533141255
 30
0.0
 11
409.6467981689972
 21
691.7182533141255
 31
0.0
  0
LINE
  5
50AC
330
4F01
100
AcDbEntity
  8
标注
 62
     0
370
    -2
100
AcDbLine
 10
456.365041332791
 20
286.4182533141282
 30
0.0
 11
409.6467981689971
 21
286.4182533141282
 31
0.0
  0
LINE
  5
50AD
330
4F01
100
AcDbEntity
  8
标注
 62
     0
370
     0
100
AcDbLine
 10
413.3967981689972
 20
686.7182533141255
 30
0.0
 11
413.3967981689971
 21
291.4182533141282
 31
0.0
  0
SOLID
  5
50AE
330
4F01
100
AcDbEntity
  8
标注
 62
     0
370
    -1
100
AcDbTrace
 10
412.5634648356639
 20
686.7182533141255
 30
0.0
 11
414.2301315023305
 21
686.7182533141255
 31
0.0
 12
413.3967981689972
 22
691.7182533141255
 32
0.0
 13
413.3967981689972
 23
691.7182533141255
 33
0.0
  0
SOLID
  5
50AF
330
4F01
100
AcDbEntity
  8
标注
 62
     0
370
    -1
100
AcDbTrace
 10
412.5634648356638
 20
291.4182533141282
 30
0.0
 11
414.2301315023304
 21
291.4182533141282
 31
0.0
 12
413.3967981689971
 22
286.4182533141282
 32
0.0
 13
413.3967981689971
 23
286.4182533141282
 33
0.0
  0
MTEXT
  5
50B0
330
4F01
100
AcDbEntity
  8
标注
 62
     0
370
    -1
100
AcDbMText
 10
404.9882033531717
 20
495.0682533141226
 30
0.0
 40
10.0
 41
0.0
 71
     5
 72
     1
  1
{\fArial|b0|i0|c0|p34;405.3 [16]}
 11
6.123233995736766E-17
 21
1.0
 31
0.0
 73
     1
 44
1.0
  0
POINT
  5
50B1
330
4F01
100
AcDbEntity
  8
Defpoints
 62
     0
370
    -1
100
AcDbPoint
 10
454.365041332791
 20
691.7182533141255
 30
0.0
  0
POINT
  5
50B2
330
4F01
100
AcDbEntity
  8
Defpoints
 62
     0
370
    -1
100
AcDbPoint
 10
456.365041332791
 20
286.4182533141282
 30
0.0
  0
POINT
  5
50B3
330
4F01
100
AcDbEntity
  8
Defpoints
 62
     0
370
    -1
100
AcDbPoint
 10
413.3967981689971
 20
286.4182533141282
 30
0.0
  0
ENDBLK
  5
4F0C
330
4F01
100
AcDbEntity
  8
0
370
    -1
100
AcDbBlockEnd
  0
BLOCK
  5
5058
330
504C
100
AcDbEntity
  8
0
370
    -1
100
AcDbBlockBegin
  2
*D28
 70
     1
 71
     0
 10
0.0
 20
0.0
 30
0.0
  3
*D28
  1

  0
LINE
  5
50B4
330
504C
100
AcDbEntity
  8
标注
 62
     0
370
    -2
100
AcDbLine
 10
782.2755154849535
 20
489.0682533141245
 30
0.0
 11
782.2755154849535
 21
475.9106699354476
 31
0.0
  0
LINE
  5
50B5
330
504C
100
AcDbEntity
  8
标注
 62
     0
370
    -2
100
AcDbLine
 10
788.6255154849557
 20
489.0682533141172
 30
0.0
 11
788.6255154849557
 21
475.9106699354476
 31
0.0
  0
LINE
  5
50B6
330
504C
100
AcDbEntity
  8
标注
 62
     0
370
     0
100
AcDbLine
 10
793.6255154849557
 20
479.6606699354476
 30
0.0
 11
798.6255154849557
 21
479.6606699354476
 31
0.0
  0
LINE
  5
50B7
330
504C
100
AcDbEntity
  8
标注
 62
     0
370
     0
100
AcDbLine
 10
777.2755154849535
 20
479.6606699354476
 30
0.0
 11
709.1762658260174
 21
479.6606699354476
 31
0.0
  0
LINE
  5
50B8
330
504C
100
AcDbEntity
  8
标注
 62
     0
370
     0
100
AcDbLine
 10
788.6255154849557
 20
479.6606699354476
 30
0.0
 11
782.2755154849535
 21
479.6606699354476
 31
0.0
  0
SOLID
  5
50B9
330
504C
100
AcDbEntity
  8
标注
 62
     0
370
    -1
100
AcDbTrace
 10
793.6255154849557
 20
480.4940032687809
 30
0.0
 11
793.6255154849557
 21
478.8273366021143
 31
0.0
 12
788.6255154849557
 22
479.6606699354476
 32
0.0
 13
788.6255154849557
 23
479.6606699354476
 33
0.0
  0
SOLID
  5
50BA
330
504C
100
AcDbEntity
  8
标注
 62
     0
370
    -1
100
AcDbTrace
 10
777.2755154849535
 20
480.4940032687809
 30
0.0
 11
777.2755154849535
 21
478.8273366021143
 31
0.0
 12
782.2755154849535
 22
479.6606699354476
 32
0.0
 13
782.2755154849535
 23
479.6606699354476
 33
0.0
  0
MTEXT
  5
50BB
330
504C
100
AcDbEntity
  8
标注
 62
     0
370
    -1
100
AcDbMText
 10
735.7021866991415
 20
488.1340669340833
 30
0.0
 40
10.0
 41
0.0
 71
     5
 72
     1
  1
{\fArial|b0|i0|c0|p34;6.4 [1/4]}
 73
     1
 44
1.0
  0
POINT
  5
50BC
330
504C
100
AcDbEntity
  8
Defpoints
 62
     0
370
    -1
100
AcDbPoint
 10
782.2755154849535
 20
489.0682533141245
 30
0.0
  0
POINT
  5
50BD
330
504C
100
AcDbEntity
  8
Defpoints
 62
     0
370
    -1
100
AcDbPoint
 10
788.6255154849557
 20
489.0682533141172
 30
0.0
  0
POINT
  5
50BE
330
504C
100
AcDbEntity
  8
Defpoints
 62
     0
370
    -1
100
AcDbPoint
 10
788.6255154849557
 20
479.6606699354476
 30
0.0
  0
ENDBLK
  5
5059
330
504C
100
AcDbEntity
  8
0
370
    -1
100
AcDbBlockEnd
  0
BLOCK
  5
5066
330
505A
100
AcDbEntity
  8
0
370
    -1
100
AcDbBlockBegin
  2
*D29
 70
     1
 71
     0
 10
0.0
 20
0.0
 30
0.0
  3
*D29
  1

  0
LINE
  5
50BF
330
505A
100
AcDbEntity
  8
标注
 62
     0
370
    -2
100
AcDbLine
 10
788.6255154849557
 20
489.0682533141172
 30
0.0
 11
788.6255154849557
 21
454.4106699354476
 31
0.0
  0
LINE
  5
50C0
330
505A
100
AcDbEntity
  8
标注
 62
     0
370
    -2
100
AcDbLine
 10
794.9755154849579
 20
489.0682533141245
 30
0.0
 11
794.9755154849579
 21
454.4106699354476
 31
0.0
  0
LINE
  5
50C1
330
505A
100
AcDbEntity
  8
标注
 62
     0
370
     0
100
AcDbLine
 10
799.9755154849579
 20
458.1606699354476
 30
0.0
 11
804.9755154849579
 21
458.1606699354476
 31
0.0
  0
LINE
  5
50C2
330
505A
100
AcDbEntity
  8
标注
 62
     0
370
     0
100
AcDbLine
 10
783.6255154849557
 20
458.1606699354476
 30
0.0
 11
715.5262658260195
 21
458.1606699354476
 31
0.0
  0
LINE
  5
50C3
330
505A
100
AcDbEntity
  8
标注
 62
     0
370
     0
100
AcDbLine
 10
794.9755154849579
 20
458.1606699354476
 30
0.0
 11
788.6255154849557
 21
458.1606699354476
 31
0.0
  0
SOLID
  5
50C4
330
505A
100
AcDbEntity
  8
标注
 62
     0
370
    -1
100
AcDbTrace
 10
799.9755154849579
 20
458.9940032687809
 30
0.0
 11
799.9755154849579
 21
457.3273366021143
 31
0.0
 12
794.9755154849579
 22
458.1606699354476
 32
0.0
 13
794.9755154849579
 23
458.1606699354476
 33
0.0
  0
SOLID
  5
50C5
330
505A
100
AcDbEntity
  8
标注
 62
     0
370
    -1
100
AcDbTrace
 10
783.6255154849557
 20
458.9940032687809
 30
0.0
 11
783.6255154849557
 21
457.3273366021143
 31
0.0
 12
788.6255154849557
 22
458.1606699354476
 32
0.0
 13
788.6255154849557
 23
458.1606699354476
 33
0.0
  0
MTEXT
  5
50C6
330
505A
100
AcDbEntity
  8
标注
 62
     0
370
    -1
100
AcDbMText
 10
742.0521866991437
 20
466.6340669340833
 30
0.0
 40
10.0
 41
0.0
 71
     5
 72
     1
  1
{\fArial|b0|i0|c0|p34;6.4 [1/4]}
 73
     1
 44
1.0
  0
POINT
  5
50C7
330
505A
100
AcDbEntity
  8
Defpoints
 62
     0
370
    -1
100
AcDbPoint
 10
788.6255154849557
 20
489.0682533141172
 30
0.0
  0
POINT
  5
50C8
330
505A
100
AcDbEntity
  8
Defpoints
 62
     0
370
    -1
100
AcDbPoint
 10
794.9755154849579
 20
489.0682533141245
 30
0.0
  0
POINT
  5
50C9
330
505A
100
AcDbEntity
  8
Defpoints
 62
     0
370
    -1
100
AcDbPoint
 10
794.9755154849579
 20
458.1606699354476
 30
0.0
  0
ENDBLK
  5
5067
330
505A
100
AcDbEntity
  8
0
370
    -1
100
AcDbBlockEnd
  0
ENDSEC
  0
SECTION
  2
ENTITIES
  0
LINE
  5
4915
330
1F
100
AcDbEntity
  8
粗实线
370
    -1
100
AcDbLine
 10
1176.248766737824
 20
131.6423105297442
 30
0.0
 11
735.5975905227515
 21
131.6423105297442
 31
0.0
  0
LINE
  5
4916
330
1F
100
AcDbEntity
  8
图框线
370
    -1
100
AcDbLine
 10
1029.365041332791
 20
244.2531666736
 30
0.0
 11
1029.365041332791
 21
131.6423105297442
 31
0.0
  0
LINE
  5
4917
330
1F
100
AcDbEntity
  8
图框线
370
    -1
100
AcDbLine
 10
882.481315927761
 20
244.2531666736
 30
0.0
 11
882.481315927761
 21
131.6423105297442
 31
0.0
  0
LINE
  5
4918
330
1F
100
AcDbEntity
  8
图框线
370
    -1
100
AcDbLine
 10
900.8417816034148
 20
175.7074281512517
 30
0.0
 11
900.8417816034148
 21
148.7787451603398
 31
0.0
  0
LINE
  5
4919
330
1F
100
AcDbEntity
  8
图框线
370
    -1
100
AcDbLine
 10
919.2022472790281
 20
175.7074281512517
 30
0.0
 11
919.2022472790281
 21
148.7787451603398
 31
0.0
  0
LINE
  5
491A
330
1F
100
AcDbEntity
  8
图框线
370
    -1
100
AcDbLine
 10
955.9231786302671
 20
148.7787451603398
 30
0.0
 11
955.9231786302671
 21
131.6423105297442
 31
0.0
  0
LINE
  5
491B
330
1F
100
AcDbEntity
  8
图框线
370
    -1
100
AcDbLine
 10
937.5627129546428
 20
190.395800691765
 30
0.0
 11
937.5627129546428
 21
148.7787451603398
 31
0.0
  0
LINE
  5
491C
330
1F
100
AcDbEntity
  8
图框线
370
    -1
100
AcDbLine
 10
966.9394580356561
 20
190.395800691765
 30
0.0
 11
966.9394580356561
 21
148.7787451603398
 31
0.0
  0
LINE
  5
491D
330
1F
100
AcDbEntity
  8
图框线
370
    -1
100
AcDbLine
 10
999.9882962517822
 20
190.395800691765
 30
0.0
 11
999.9882962517822
 21
148.7787451603398
 31
0.0
  0
LINE
  5
491E
330
1F
100
AcDbEntity
  8
粗实线
370
    -1
100
AcDbLine
 10
1176.248766737824
 20
131.6423105297442
 30
0.0
 11
735.5975905227515
 21
131.6423105297442
 31
0.0
  0
LINE
  5
491F
330
1F
100
AcDbEntity
  8
粗实线
370
    -1
100
AcDbLine
 10
1176.248766737824
 20
244.2531666736
 30
0.0
 11
735.5975905227515
 21
244.2531666736
 31
0.0
  0
LINE
  5
4920
330
1F
100
AcDbEntity
  8
图框线
370
    -1
100
AcDbLine
 10
1029.365041332791
 20
190.395800691765
 30
0.0
 11
735.5975905227515
 21
190.395800691765
 31
0.0
  0
LINE
  5
4921
330
1F
100
AcDbEntity
  8
图框线
370
    -1
100
AcDbLine
 10
882.481315927761
 20
201.1672738881296
 30
0.0
 11
735.5975905227515
 21
201.1672738881296
 31
0.0
  0
LINE
  5
4922
330
1F
100
AcDbEntity
  8
图框线
370
    -1
100
AcDbLine
 10
882.481315927761
 20
211.938747084491
 30
0.0
 11
735.5975905227515
 21
211.938747084491
 31
0.0
  0
LINE
  5
4923
330
1F
100
AcDbEntity
  8
图框线
370
    -1
100
AcDbLine
 10
882.481315927761
 20
222.7102202808629
 30
0.0
 11
735.5975905227515
 21
222.7102202808629
 31
0.0
  0
LINE
  5
4924
330
1F
100
AcDbEntity
  8
图框线
370
    -1
100
AcDbLine
 10
882.481315927761
 20
233.4816934772358
 30
0.0
 11
735.5975905227515
 21
233.4816934772358
 31
0.0
  0
LINE
  5
4925
330
1F
100
AcDbEntity
  8
图框线
370
    -1
100
AcDbLine
 10
1029.365041332791
 20
175.7074281512517
 30
0.0
 11
735.5975905227515
 21
175.7074281512517
 31
0.0
  0
LINE
  5
4926
330
1F
100
AcDbEntity
  8
图框线
370
    -1
100
AcDbLine
 10
1029.365041332791
 20
161.0190556107467
 30
0.0
 11
735.5975905227515
 21
161.0190556107467
 31
0.0
  0
LINE
  5
4927
330
1F
100
AcDbEntity
  8
图框线
370
    -1
100
AcDbLine
 10
882.481315927761
 20
146.3306830702455
 30
0.0
 11
735.5975905227515
 21
146.3306830702455
 31
0.0
  0
LINE
  5
4928
330
1F
100
AcDbEntity
  8
图框线
370
    -1
100
AcDbLine
 10
1029.365041332791
 20
175.7074281512517
 30
0.0
 11
882.481315927761
 21
175.7074281512517
 31
0.0
  0
LINE
  5
4929
330
1F
100
AcDbEntity
  8
图框线
370
    -1
100
AcDbLine
 10
1029.365041332791
 20
161.0190556107467
 30
0.0
 11
882.481315927761
 21
161.0190556107467
 31
0.0
  0
LINE
  5
492A
330
1F
100
AcDbEntity
  8
图框线
370
    -1
100
AcDbLine
 10
1029.365041332791
 20
148.7787451603398
 30
0.0
 11
882.481315927761
 21
148.7787451603398
 31
0.0
  0
LINE
  5
492B
330
1F
100
AcDbEntity
  8
图框线
370
    -1
100
AcDbLine
 10
1176.248766737824
 20
205.0841732322589
 30
0.0
 11
1029.365041332791
 21
205.0841732322589
 31
0.0
  0
LINE
  5
492C
330
1F
100
AcDbEntity
  8
图框线
370
    -1
100
AcDbLine
 10
1176.248766737824
 20
168.3632418809874
 30
0.0
 11
1029.365041332791
 21
168.3632418809874
 31
0.0
  0
LINE
  5
492D
330
1F
100
AcDbEntity
  8
图框线
370
    -1
100
AcDbLine
 10
755.1820872434082
 20
190.3958006917454
 30
0.0
 11
755.1820872434082
 21
244.2531666736
 31
0.0
  0
LINE
  5
492E
330
1F
100
AcDbEntity
  8
图框线
370
    -1
100
AcDbLine
 10
774.7665839640763
 20
190.3958006917454
 30
0.0
 11
774.7665839640763
 21
244.2531666736
 31
0.0
  0
LINE
  5
492F
330
1F
100
AcDbEntity
  8
图框线
370
    -1
100
AcDbLine
 10
816.3836394955174
 20
190.395800691765
 30
0.0
 11
816.3836394955174
 21
244.2531666736
 31
0.0
  0
LINE
  5
4930
330
1F
100
AcDbEntity
  8
图框线
370
    -1
100
AcDbLine
 10
853.1045708467618
 20
190.395800691765
 30
0.0
 11
853.1045708467618
 21
244.2531666736
 31
0.0
  0
LINE
  5
4931
330
1F
100
AcDbEntity
  8
图框线
370
    -1
100
AcDbLine
 10
764.9743356037479
 20
131.6423105297442
 30
0.0
 11
764.9743356037479
 21
190.3958006917454
 31
0.0
  0
LINE
  5
4932
330
1F
100
AcDbEntity
  8
图框线
370
    -1
100
AcDbLine
 10
809.0394532252594
 20
131.6423105297442
 30
0.0
 11
809.0394532252594
 21
190.395800691765
 31
0.0
  0
LINE
  5
4933
330
1F
100
AcDbEntity
  8
图框线
370
    -1
100
AcDbLine
 10
838.4161983062572
 20
131.6423105297442
 30
0.0
 11
838.4161983062572
 21
190.395800691765
 31
0.0
  0
MTEXT
  5
4934
330
1F
100
AcDbEntity
  8
文字
370
    -1
100
AcDbMText
 10
739.3401791617061
 20
198.819232774591
 30
0.0
 40
4.969510823061595
 41
31.9353107478464
 71
     1
 72
     5
  1
{\fSimSun|b0|i0|c134|p2;标记}
 73
     1
 44
1.0
  0
MTEXT
  5
4935
330
1F
100
AcDbEntity
  8
文字
370
    -1
100
AcDbMText
 10
758.5081772445674
 20
198.761033572226
 30
0.0
 40
4.969510823061595
 41
31.9353107478464
 71
     1
 72
     5
  1
{\fSimSun|b0|i0|c134|p2;处数}
 73
     1
 44
1.0
  0
MTEXT
  5
4936
330
1F
100
AcDbEntity
  8
文字
370
    -1
100
AcDbMText
 10
782.268226397588
 20
198.1389426007737
 30
0.0
 40
3.975608658449276
 41
67.90707274981278
 71
     1
 72
     5
  1
{\fSimSun|b0|i0|c134|p2;\C1;更改文件号}
 73
     1
 44
1.0
  0
MTEXT
  5
4937
330
1F
100
AcDbEntity
  8
文字
370
    -1
100
AcDbMText
 10
827.0690724477472
 20
199.1250041440916
 30
0.0
 40
4.969510823061595
 41
31.9353107478464
 71
     1
 72
     5
  1
{\fSimSun|b0|i0|c134|p2;签名}
 73
     1
 44
1.0
  0
MTEXT
  5
4938
330
1F
100
AcDbEntity
  8
文字
370
    -1
100
AcDbMText
 10
862.2730646058294
 20
198.832395853012
 30
0.0
 40
4.969510823061595
 41
31.9353107478464
 71
     1
 72
     5
  1
{\fSimSun|b0|i0|c134|p2;日期}
 73
     1
 44
1.0
  0
MTEXT
  5
4939
330
1F
100
AcDbEntity
  8
文字
370
    -1
100
AcDbMText
 10
741.9476243626068
 20
186.5694986682103
 30
0.0
 40
6.211888528826992
 41
39.91913843480801
 71
     1
 72
     5
  1
{\fSimSun|b0|i0|c134|p2;设计}
 73
     1
 44
1.0
  0
MTEXT
  5
493A
330
1F
100
AcDbEntity
  8
文字
370
    -1
100
AcDbMText
 10
741.9476243626068
 20
171.7812191645892
 30
0.0
 40
6.211888528826992
 41
39.91913843480801
 71
     1
 72
     5
  1
{\fSimSun|b0|i0|c134|p2;校对}
 73
     1
 44
1.0
  0
MTEXT
  5
493B
330
1F
100
AcDbEntity
  8
文字
370
    -1
100
AcDbMText
 10
741.9476243626068
 20
157.1379226928603
 30
0.0
 40
6.211888528826992
 41
39.91913843480801
 71
     1
 72
     5
  1
{\fSimSun|b0|i0|c134|p2;会签}
 73
     1
 44
1.0
  0
MTEXT
  5
493C
330
1F
100
AcDbEntity
  8
文字
370
    -1
100
AcDbMText
 10
741.9476243626068
 20
142.6535881411216
 30
0.0
 40
6.211888528826992
 41
39.91913843480801
 71
     1
 72
     5
  1
{\fSimSun|b0|i0|c134|p2;工艺}
 73
     1
 44
1.0
  0
MTEXT
  5
493D
330
1F
100
AcDbEntity
  8
文字
370
    -1
100
AcDbMText
 10
815.2886534513818
 20
170.9072535834487
 30
0.0
 40
6.211888528826992
 41
39.91913843480801
 71
     1
 72
     5
  1
{\fSimSun|b0|i0|c134|p2;批准}
 73
     1
 44
1.0
  0
MTEXT
  5
493E
330
1F
100
AcDbEntity
  8
文字
370
    -1
100
AcDbMText
 10
816.6125270076964
 20
141.7796339080191
 30
0.0
 40
6.211888528826992
 41
39.91913843480801
 71
     1
 72
     5
  1
{\fSimSun|b0|i0|c134|p2;日期}
 73
     1
 44
1.0
  0
MTEXT
  5
493F
330
1F
100
AcDbEntity
  8
文字
370
    -1
100
AcDbMText
 10
893.2161023747917
 20
186.6905258265212
 30
0.0
 40
6.211888528826992
 41
39.91913843480801
 71
     1
 72
     5
  1
{\fSimSun|b0|i0|c134|p2;图样标记}
 73
     1
 44
1.0
  0
MTEXT
  5
4940
330
1F
100
AcDbEntity
  8
文字
370
    -1
100
AcDbMText
 10
902.9860625279434
 20
143.1841583153281
 30
0.0
 40
6.211888528826992
 41
39.91913843480801
 71
     1
 72
     5
  1
{\fSimSun|b0|i0|c134|p2;共  页}
 73
     1
 44
1.0
  0
MTEXT
  5
4941
330
1F
100
AcDbEntity
  8
文字
370
    -1
100
AcDbMText
 10
945.1795652317865
 20
186.6347330979573
 30
0.0
 40
6.211888528826992
 41
39.91913843480801
 71
     1
 72
     5
  1
{\fSimSun|b0|i0|c134|p2;数量}
 73
     1
 44
1.0
  0
MTEXT
  5
4942
330
1F
100
AcDbEntity
  8
文字
370
    -1
100
AcDbMText
 10
971.2790112090511
 20
186.2306975557385
 30
0.0
 40
6.211888528826992
 41
39.91913843480801
 71
     1
 72
     5
  1
{\fSimSun|b0|i0|c134|p2;重量}
 73
     1
 44
1.0
  0
MTEXT
  5
4943
330
1F
100
AcDbEntity
  8
文字
370
    -1
100
AcDbMText
 10
1006.986434816819
 20
186.5539237199083
 30
0.0
 40
6.211888528826992
 41
39.91913843480801
 71
     1
 72
     5
  1
{\fSimSun|b0|i0|c134|p2;比例}
 73
     1
 44
1.0
  0
MTEXT
  5
4944
330
1F
100
AcDbEntity
  8
文字
370
    -1
100
AcDbMText
 10
990.2134814472711
 20
185.5860936785508
 30
0.0
 40
7.219628871107808
 41
143.3492784523429
 71
     1
 72
     5
  1
{\fArial|b0|i0|c0|p34;kg}
  7
样式 8
 73
     1
 44
1.0
  0
MTEXT
  5
4945
330
1F
100
AcDbEntity
  8
文字
370
    -1
100
AcDbMText
 10
976.9873421102147
 20
143.1841583153281
 30
0.0
 40
6.211888528826992
 41
39.91913843480801
 71
     1
 72
     5
  1
{\fSimSun|b0|i0|c134|p2;第  页}
 73
     1
 44
1.0
  0
MTEXT
  5
4946
330
1F
100
AcDbEntity
  8
文字
370
    -1
100
AcDbMText
 10
1036.541391358864
 20
227.2254833095662
 30
0.0
 40
9.024536088884759
 41
179.1865980654287
 71
     1
 72
     5
  1
{\fSimSun|b0|i0|c134|p2;\C1;泰捷不锈钢制品（泰国）有限公司}
  7
样式 8
 73
     1
 44
1.0
  0
MTEXT
  5
4947
330
1F
100
AcDbEntity
  8
文字
370
    -1
100
AcDbMText
 10
1049.857448637581
 20
194.7608628325124
 30
0.0
 40
11.75069803240203
 41
233.3158828976935
 71
     1
 72
     5
  1
{\fSimSun|b0|i0|c134|p2;\C1;开孔纸板（FD1014）}
  7
样式 8
 73
     1
 44
1.0
  0
LINE
  5
4948
330
1F
100
AcDbEntity
  8
不可见
370
    -1
100
AcDbLine
 10
1188.489077188242
 20
846.4764408342035
 30
0.0
 11
1188.489077188242
 21
119.4020000793261
 31
0.0
  0
LINE
  5
4949
330
1F
100
AcDbEntity
  8
粗实线
370
    -1
100
AcDbLine
 10
1176.248766737824
 20
834.2361303837986
 30
0.0
 11
1176.248766737824
 21
131.6423105297442
 31
0.0
  0
LINE
  5
494A
330
1F
100
AcDbEntity
  8
不可见
370
    -1
100
AcDbLine
 10
1188.489077188242
 20
119.4020000793261
 30
0.0
 11
160.3029993530645
 21
119.4020000793261
 31
0.0
  0
LINE
  5
494B
330
1F
100
AcDbEntity
  8
粗实线
370
    -1
100
AcDbLine
 10
1176.248766737824
 20
131.6423105297442
 30
0.0
 11
221.5045516051466
 21
131.6423105297442
 31
0.0
  0
LINE
  5
494C
330
1F
100
AcDbEntity
  8
粗实线
370
    -1
100
AcDbLine
 10
1176.248766737824
 20
131.6423105297442
 30
0.0
 11
221.5045516051466
 21
131.6423105297442
 31
0.0
  0
MTEXT
  5
494D
330
1F
100
AcDbEntity
  8
文字
370
    -1
100
AcDbMText
 10
922.9548193274732
 20
219.998489473088
 30
0.0
 40
11.75069803240203
 41
233.3158828976935
 71
     1
 72
     5
  1
{\fSimSun|b0|i0|c0|p2;\C1;0.3\fSimSun|b0|i0|c134|p2;mm厚白纸板}
  7
样式 8
 73
     1
 44
1.0
  0
MTEXT
  5
494E
330
1F
100
AcDbEntity
  8
文字
370
    -1
100
AcDbMText
 10
888.9051824815747
 20
238.2856604613894
 30
0.0
 40
11.75069803240203
 41
233.3158828976935
 71
     1
 72
     5
  1
{\fSimSun|b0|i0|c134|p2;材料:}
  7
样式 8
 73
     1
 44
1.0
  0
MTEXT
  5
494F
330
1F
100
AcDbEntity
  8
文字
370
    -1
100
AcDbMText
 10
815.2886534513818
 20
185.6339309683565
 30
0.0
 40
6.211888528826992
 41
39.91913843480801
 71
     1
 72
     5
  1
{\fSimSun|b0|i0|c134|p2;审核}
 73
     1
 44
1.0
  0
LINE
  5
4950
330
1F
100
AcDbEntity
  8
不可见
370
    -1
100
AcDbLine
 10
160.3029993530645
 20
846.4764408342035
 30
0.0
 11
1188.489077188242
 21
846.4764408342035
 31
0.0
  0
LINE
  5
4951
330
1F
100
AcDbEntity
  8
粗实线
370
    -1
100
AcDbLine
 10
221.5045516051466
 20
834.2361303837826
 30
0.0
 11
1176.248766737824
 21
834.2361303837826
 31
0.0
  0
LINE
  5
4952
330
1F
100
AcDbEntity
  8
不可见
370
    -1
100
AcDbLine
 10
160.3029993530645
 20
119.4020000793261
 30
0.0
 11
160.3029993530645
 21
846.4764408342035
 31
0.0
  0
LINE
  5
4953
330
1F
100
AcDbEntity
  8
粗实线
370
    -1
100
AcDbLine
 10
221.5045516051466
 20
131.6423105297442
 30
0.0
 11
221.5045516051466
 21
834.2361303837826
 31
0.0
  0
LINE
  5
4954
330
1F
100
AcDbEntity
  8
粗实线
370
    -1
100
AcDbLine
 10
221.5045516051466
 20
808.8490422734989
 30
0.0
 11
342.2025928700514
 21
808.8490422734989
 31
0.0
  0
LINE
  5
4955
330
1F
100
AcDbEntity
  8
粗实线
370
    -1
100
AcDbLine
 10
342.2025928700514
 20
808.8490422734989
 30
0.0
 11
342.2025928700514
 21
834.2361303837826
 31
0.0
  0
LINE
  5
4956
330
1F
100
AcDbEntity
  8
图框线
370
    -1
100
AcDbLine
 10
221.5045516051466
 20
151.2268072504106
 30
0.0
 11
160.3029993530645
 21
151.2268072504106
 31
0.0
  0
LINE
  5
4957
330
1F
100
AcDbEntity
  8
图框线
370
    -1
100
AcDbLine
 10
221.5045516051466
 20
165.9151797909241
 30
0.0
 11
160.3029993530645
 21
165.9151797909241
 31
0.0
  0
LINE
  5
4958
330
1F
100
AcDbEntity
  8
图框线
370
    -1
100
AcDbLine
 10
221.5045516051466
 20
185.499676511583
 30
0.0
 11
160.3029993530645
 21
185.499676511583
 31
0.0
  0
LINE
  5
4959
330
1F
100
AcDbEntity
  8
图框线
370
    -1
100
AcDbLine
 10
221.5045516051466
 20
200.188049052088
 30
0.0
 11
160.3029993530645
 21
200.188049052088
 31
0.0
  0
LINE
  5
495A
330
1F
100
AcDbEntity
  8
图框线
370
    -1
100
AcDbLine
 10
221.5045516051466
 20
219.7725457727563
 30
0.0
 11
160.3029993530645
 21
219.7725457727563
 31
0.0
  0
LINE
  5
495B
330
1F
100
AcDbEntity
  8
图框线
370
    -1
100
AcDbLine
 10
221.5045516051466
 20
234.4609183132537
 30
0.0
 11
160.3029993530645
 21
234.4609183132537
 31
0.0
  0
LINE
  5
495C
330
1F
100
AcDbEntity
  8
图框线
370
    -1
100
AcDbLine
 10
221.5045516051466
 20
254.0454150339361
 30
0.0
 11
160.3029993530645
 21
254.0454150339361
 31
0.0
  0
LINE
  5
495D
330
1F
100
AcDbEntity
  8
图框线
370
    -1
100
AcDbLine
 10
221.5045516051466
 20
268.7337875744327
 30
0.0
 11
160.3029993530645
 21
268.7337875744327
 31
0.0
  0
LINE
  5
495E
330
1F
100
AcDbEntity
  8
图框线
370
    -1
100
AcDbLine
 10
221.5045516051466
 20
288.3182842951161
 30
0.0
 11
160.3029993530645
 21
288.3182842951161
 31
0.0
  0
LINE
  5
495F
330
1F
100
AcDbEntity
  8
图框线
370
    -1
100
AcDbLine
 10
221.5045516051466
 20
303.0066568356247
 30
0.0
 11
160.3029993530645
 21
303.0066568356247
 31
0.0
  0
LINE
  5
4960
330
1F
100
AcDbEntity
  8
图框线
370
    -1
100
AcDbLine
 10
221.5045516051466
 20
322.5911535562714
 30
0.0
 11
160.3029993530645
 21
322.5911535562714
 31
0.0
  0
LINE
  5
4961
330
1F
100
AcDbEntity
  8
图框线
370
    -1
100
AcDbLine
 10
221.5045516051466
 20
337.2795260967773
 30
0.0
 11
160.3029993530645
 21
337.2795260967773
 31
0.0
  0
LINE
  5
4962
330
1F
100
AcDbEntity
  8
图框线
370
    -1
100
AcDbLine
 10
221.5045516051466
 20
351.9678986372747
 30
0.0
 11
160.3029993530645
 21
351.9678986372747
 31
0.0
  0
LINE
  5
4963
330
1F
100
AcDbEntity
  8
图框线
370
    -1
100
AcDbLine
 10
221.5045516051466
 20
131.6423105297442
 30
0.0
 11
160.3029993530645
 21
131.6423105297442
 31
0.0
  0
MTEXT
  5
4964
330
1F
100
AcDbEntity
  8
文字
370
    -1
100
AcDbMText
 10
166.8626519961397
 20
161.8662708971477
 30
0.0
 40
5.098089302599423
 41
129.5150432654594
 71
     1
 72
     5
  1
日   
 73
     1
 44
1.0
  0
MTEXT
  5
4965
330
1F
100
AcDbEntity
  8
文字
370
    -1
100
AcDbMText
 10
166.8626519961397
 20
196.1203694895851
 30
0.0
 40
5.098089302599423
 41
129.5150432654594
 71
     1
 72
     5
  1
签   
 73
     1
 44
1.0
  0
MTEXT
  5
4966
330
1F
100
AcDbEntity
  8
文字
370
    -1
100
AcDbMText
 10
166.8626519961397
 20
231.3319949691374
 30
0.0
 40
5.098089302599423
 41
129.5150432654594
 71
     1
 72
     5
  1
底
 73
     1
 44
1.0
  0
MTEXT
  5
4967
330
1F
100
AcDbEntity
  8
文字
370
    -1
100
AcDbMText
 10
166.8626519961397
 20
264.6096597548272
 30
0.0
 40
5.098089302599423
 41
129.5150432654594
 71
     1
 72
     5
  1
旧
 73
     1
 44
1.0
  0
MTEXT
  5
4968
330
1F
100
AcDbEntity
  8
文字
370
    -1
100
AcDbMText
 10
165.9417664193902
 20
334.8595273059248
 30
0.0
 40
5.098089302599423
 41
129.5150432654594
 71
     1
 72
     5
  1
描   
 73
     1
 44
1.0
  0
MTEXT
  5
4969
330
1F
100
AcDbEntity
  8
文字
370
    -1
100
AcDbMText
 10
163.485286941826
 20
349.7978560440279
 30
0.0
 40
5.098089302599423
 41
129.5150432654594
 71
     1
 72
     5
  1
\ftxt.shx,gbcbig.shx;\H1x;\C1;借（通）用件登记
 73
     1
 44
1.0
  0
MTEXT
  5
496A
330
1F
100
AcDbEntity
  8
文字
370
    -1
100
AcDbMText
 10
209.3985512809411
 20
334.8595273059248
 30
0.0
 40
5.098089302599423
 41
129.5150432654594
 71
     1
 72
     5
  1
图   
 73
     1
 44
1.0
  0
MTEXT
  5
496B
330
1F
100
AcDbEntity
  8
文字
370
    -1
100
AcDbMText
 10
165.9417664193902
 20
300.2957332384581
 30
0.0
 40
5.098089302599423
 41
129.5150432654594
 71
     1
 72
     5
  1
描   
 73
     1
 44
1.0
  0
MTEXT
  5
496C
330
1F
100
AcDbEntity
  8
文字
370
    -1
100
AcDbMText
 10
209.3985512809411
 20
300.2957332384581
 30
0.0
 40
5.098089302599423
 41
129.5150432654594
 71
     1
 72
     5
  1
校   
 73
     1
 44
1.0
  0
MTEXT
  5
496D
330
1F
100
AcDbEntity
  8
文字
370
    -1
100
AcDbMText
 10
176.3151547543837
 20
264.7148247930552
 30
0.0
 40
5.098089302599423
 41
129.5150432654594
 71
     1
 72
     5
  1
底
 73
     1
 44
1.0
  0
MTEXT
  5
496E
330
1F
100
AcDbEntity
  8
文字
370
    -1
100
AcDbMText
 10
188.2795042849293
 20
264.6096597548272
 30
0.0
 40
5.098089302599423
 41
129.5150432654594
 71
     1
 72
     5
  1
图
 73
     1
 44
1.0
  0
MTEXT
  5
496F
330
1F
100
AcDbEntity
  8
文字
370
    -1
100
AcDbMText
 10
199.4145199681661
 20
264.6096597548272
 30
0.0
 40
5.098089302599423
 41
129.5150432654594
 71
     1
 72
     5
  1
总
 73
     1
 44
1.0
  0
MTEXT
  5
4970
330
1F
100
AcDbEntity
  8
文字
370
    -1
100
AcDbMText
 10
210.518111477448
 20
264.6096597548272
 30
0.0
 40
5.098089302599423
 41
129.5150432654594
 71
     1
 72
     5
  1
号
 73
     1
 44
1.0
  0
MTEXT
  5
4971
330
1F
100
AcDbEntity
  8
文字
370
    -1
100
AcDbMText
 10
180.7699548927371
 20
231.3319949691374
 30
0.0
 40
5.098089302599423
 41
129.5150432654594
 71
     1
 72
     5
  1
图
 73
     1
 44
1.0
  0
MTEXT
  5
4972
330
1F
100
AcDbEntity
  8
文字
370
    -1
100
AcDbMText
 10
194.4334098808504
 20
231.3319949691374
 30
0.0
 40
5.098089302599423
 41
129.5150432654594
 71
     1
 72
     5
  1
总
 73
     1
 44
1.0
  0
MTEXT
  5
4973
330
1F
100
AcDbEntity
  8
文字
370
    -1
100
AcDbMText
 10
209.1685074132904
 20
231.3319949691374
 30
0.0
 40
5.098089302599423
 41
129.5150432654594
 71
     1
 72
     5
  1
号
 73
     1
 44
1.0
  0
MTEXT
  5
4974
330
1F
100
AcDbEntity
  8
文字
370
    -1
100
AcDbMText
 10
209.2778750824318
 20
196.1203694895851
 30
0.0
 40
5.098089302599423
 41
129.5150432654594
 71
     1
 72
     5
  1
字  
 73
     1
 44
1.0
  0
MTEXT
  5
4975
330
1F
100
AcDbEntity
  8
文字
370
    -1
100
AcDbMText
 10
208.3962958796155
 20
161.8662708971477
 30
0.0
 40
5.098089302599423
 41
129.5150432654594
 71
     1
 72
     5
  1
期  
 73
     1
 44
1.0
  0
MTEXT
  5
4976
330
1F
100
AcDbEntity
  8
文字
370
    -1
100
AcDbMText
 10
1085.128957609865
 20
155.8667956365442
 30
0.0
 40
14.10083763888244
 41
279.9790594772322
 71
     1
 72
     5
  1
\fNSimSun|b0|i0|c134|p49;\H1x;\C1;1b18/2
  7
样式 8
 73
     1
 44
1.0
  0
LINE
  5
4977
330
1F
100
AcDbEntity
  8
粗实线
370
    -1
100
AcDbLine
 10
735.5975905227515
 20
244.2531666736
 30
0.0
 11
735.5975905227515
 21
131.6423105297442
 31
0.0
  0
MTEXT
  5
4978
330
1F
100
AcDbEntity
  8
文字
370
    -1
100
AcDbMText
 10
1003.584739327473
 20
274.607649473088
 30
0.0
 40
11.75069803240203
 41
233.3158828976935
 71
     1
 72
     5
  1
{\fSimSun|b0|i0|c134|p2;\C1;注：图纸上标注尺寸不用印刷}
  7
样式 8
 73
     1
 44
1.0
  0
LWPOLYLINE
  5
4DDA
330
1F
100
AcDbEntity
  8
虚线
 48
2.0
370
    -1
100
AcDbPolyline
 90
        8
 70
     1
 43
0.0
 10
780.8747489951952
 20
619.4201305399298
 42
0.3509132999427972
 10
705.1339421986436
 20
693.9051564385414
 42
0.0510756622773357
 10
542.1170887712601
 20
693.9051564385414
 42
0.3509132999427974
 10
466.3762819747085
 20
619.4201305399298
 42
0.0594603365499113
 10
466.3762819747085
 20
358.7163760883237
 42
0.3509132999428039
 10
542.1170887712601
 20
284.2313501897121
 42
0.0510756622773351
 10
705.1339421986436
 20
284.2313501897121
 42
0.3509132999427972
 10
780.8747489951952
 20
358.7163760883237
 42
0.0594603365499108
  0
LWPOLYLINE
  5
4DDB
330
1F
100
AcDbEntity
  8
0
370
    -1
100
AcDbPolyline
 90
        8
 70
     1
 43
0.0
 10
787.180005934099
 20
620.1726163766403
 42
0.3509132999427972
 10
705.7809153356889
 20
700.222111857093
 42
0.0510756622773357
 10
541.4701156342221
 20
700.2221118570857
 42
0.350913331465168
 10
460.0710238205234
 20
620.1726061934793
 42
0.0594603342243176
 10
460.071025035812
 20
357.9638902516059
 42
0.3509133678682501
 10
541.4701376179387
 20
277.9143925196228
 42
0.0510756554079957
 10
705.7809153356889
 20
277.9143947711678
 42
0.3509133590688386
 10
787.180008213591
 20
357.9639093520133
 42
0.0594603321878301
  0
LWPOLYLINE
  5
4DDC
330
1F
100
AcDbEntity
  8
虚线
 48
2.0
370
    -1
100
AcDbPolyline
 90
        8
 70
     1
 43
0.0
 10
774.5694920562987
 20
618.667644703212
 42
0.3509132999427972
 10
704.4869690616056
 20
687.5882010199899
 42
0.0510756622773357
 10
542.7640619082981
 20
687.5882010199899
 42
0.3509133271787208
 10
472.68153800956
 20
618.667637127987
 42
0.0594603347998169
 10
472.6815389136123
 20
359.4688619250343
 42
0.3509133732186489
 10
542.764082326607
 20
290.5483035170515
 42
0.0510756557950511
 10
704.4869690616056
 20
290.5483056082636
 42
0.3509133677442347
 10
774.569494306847
 20
359.4688807829122
 42
0.0594603321932058
  0
MTEXT
  5
4DE9
330
1F
100
AcDbEntity
  8
粗实线
370
    -1
100
AcDbMText
 10
527.921863564678
 20
310.9668859623531
 30
0.0
 40
5.600000000000001
 41
214.8192584769648
 71
     1
 72
     5
  1
{\fTahoma|b0|i0|c0|p34;Use this line for FLUSH MOUNT CUT.}
  7
样式 8
 73
     1
 44
1.0
  0
SOLID
  5
4DEA
330
1F
100
AcDbEntity
  8
粗实线
370
    -1
100
AcDbTrace
 10
570.8434617831031
 20
288.9340517008792
 30
0.0
 11
572.2459716804246
 21
282.8486091999263
 31
0.0
 12
568.9456161015719
 22
288.1502407881823
 32
0.0
 13
568.9456161015719
 23
288.1502407881823
 33
0.0
1001
ACAD
1000
DSTYLE
1002
{
1070
    41
1040
8.0
1070
   147
1040
3.0
1070
    77
1070
     0
1002
}
  0
LINE
  5
4DEB
330
1F
100
AcDbEntity
  8
0
370
    -1
100
AcDbLine
 10
570.1083055548902
 20
288.0245519677452
 30
0.0
 11
564.1392524344069
 21
302.4774531764966
 31
0.0
  0
HATCH
  5
4DEC
330
1F
100
AcDbEntity
  8
剖切线
370
    -1
100
AcDbHatch
 10
0.0
 20
0.0
 30
0.0
210
0.0
220
0.0
230
1.0
  2
ANSI37
 70
     0
 71
     0
 91
        2
 92
        7
 72
     0
 73
     1
 93
        6
 10
616.5794878019465
 20
592.0804620865425
 10
615.2204158019472
 20
592.0804620865425
 10
615.2204158019472
 20
577.721904921517
 10
614.1749758019455
 20
577.721904921517
 10
614.1749758019455
 20
576.6764649215153
 10
616.5794878019465
 20
576.6764649215153
 97
        0
 92
        7
 72
     0
 73
     1
 93
        6
 10
624.6293758019406
 20
592.0804620865425
 10
623.2703038019486
 20
592.0804620865425
 10
623.2703038019486
 20
576.6764649215153
 10
625.6748158019423
 20
576.6764649215153
 10
625.6748158019423
 20
577.721904921517
 10
624.6293758019406
 20
577.721904921517
 97
        0
 75
     0
 76
     1
 52
0.0
 41
0.2090880000000001
 77
     0
 78
     2
 53
45.0
 43
1926.016552175507
 44
-2225.184455134909
 45
-0.4694159479599148
 46
0.4694159479621158
 79
     0
 53
135.0
 43
1926.016552175507
 44
-2225.184455134909
 45
-0.4694159479599148
 46
-0.4694159479621158
 79
     0
 47
0.0875911827022285
 98
        2
 10
616.1607383352843
 20
587.1215454611344
 10
623.9501789593801
 20
587.7625443563635
  0
HATCH
  5
4DED
330
1F
100
AcDbEntity
  8
剖切线
370
    -1
100
AcDbHatch
 10
0.0
 20
0.0
 30
0.0
210
0.0
220
0.0
230
1.0
  2
ANSI31
 70
     0
 71
     1
 91
        1
 92
        5
 93
        8
 72
     1
 10
615.2204158019472
 20
577.721904921517
 11
615.2204158019471
 21
592.080462086528
 72
     1
 10
615.2204158019471
 20
592.080462086528
 11
624.6293758019405
 21
592.080462086528
 72
     1
 10
624.6293758019405
 20
592.080462086528
 11
624.6293758019405
 21
577.721904921517
 72
     1
 10
624.6293758019405
 20
577.721904921517
 11
651.1250300409832
 21
577.7219049215169
 72
     1
 10
651.1250300409832
 20
577.7219049215169
 11
651.1250300409833
 21
603.8579049215083
 72
     1
 10
651.1250300409833
 20
603.8579049215083
 11
574.4650172712377
 21
603.8579049215083
 72
     4
 94
        3
 73
     0
 74
     0
 95
       11
 96
        7
 40
0.0
 40
0.0
 40
0.0
 40
0.0
 40
7.678305049617221
 40
15.51330426520927
 40
22.68672978377008
 40
27.63083019926589
 40
27.63083019926589
 40
27.63083019926589
 40
27.63083019926589
 10
574.4650172712377
 20
603.8579049215083
 10
575.9992770109559
 20
601.4888358930223
 10
579.0991067273194
 20
596.70235132036
 10
573.0957226159744
 20
589.5385934586604
 10
577.7845584083584
 20
582.8268966919564
 10
575.4269504644194
 20
579.2012241503077
 10
574.4650172712377
 20
577.721904921517
 72
     1
 10
574.4650172712376
 20
577.721904921517
 11
615.2204158019472
 21
577.721904921517
 97
        8
330
4E09
330
4DFF
330
4DF0
330
4DF3
330
4DF2
330
4E1F
330
4DEE
330
4E0B
 75
     0
 76
     1
 52
0.0
 41
0.8712000000000001
 77
     0
 78
     1
 53
44.99999999992631
 43
-8141.969538482108
 44
20083.02300559685
 45
-1.95589978316888
 46
1.955899783166679
 79
     0
 47
0.514725256801631
 98
        1
 10
591.6286153914284
 20
585.7013211024138
  0
LINE
  5
4DEE
102
{ACAD_REACTORS
330
4DED
102
}
330
1F
100
AcDbEntity
  8
粗实线
370
    -1
100
AcDbLine
 10
574.4650172712377
 20
577.721904921517
 30
0.0
 11
615.2204158019472
 21
577.721904921517
 31
0.0
  0
HATCH
  5
4DEF
330
1F
100
AcDbEntity
  8
剖切线
370
    -1
100
AcDbHatch
 10
0.0
 20
0.0
 30
0.0
210
0.0
220
0.0
230
1.0
  2
ANSI31
 70
     0
 71
     0
 91
        1
 92
        7
 72
     1
 73
     1
 93
        9
 10
640.4947475730173
 20
577.721904921517
 42
0.0
 10
638.9650449117639
 20
577.721904921517
 42
0.0
 10
638.9650449117712
 20
576.7555989215222
 42
0.0
 10
654.0261420526972
 20
576.7539049215162
 42
-0.4014906669060267
 10
656.0811842444914
 20
574.7866300013308
 42
0.0
 10
657.448719983297
 20
543.503748002721
 42
0.0
 10
658.4090337363255
 20
543.6620778943148
 42
0.0
 10
657.0482629229832
 20
574.8288535682992
 42
0.4014906669060267
 10
654.0261420526972
 20
577.721904921517
 42
0.0
 97
        0
 75
     0
 76
     1
 52
90.0
 41
0.6050000000000001
 77
     0
 78
     1
 53
135.0
 43
-12190.57629537826
 44
20789.30806525823
 45
-1.358263738311416
 46
-1.358263738313617
 79
     0
 47
0.1745883849316779
 98
        1
 10
649.0117606885856
 20
577.4784901080026
  0
LINE
  5
4DF0
102
{ACAD_REACTORS
330
4DED
102
}
330
1F
100
AcDbEntity
  8
粗实线
370
    -1
100
AcDbLine
 10
624.6293758019406
 20
577.721904921517
 30
0.0
 11
651.1250300409833
 21
577.721904921517
 31
0.0
  0
LINE
  5
4DF1
330
1F
100
AcDbEntity
  8
粗实线
370
    -1
100
AcDbLine
 10
623.2703038019486
 20
576.6764649215153
 30
0.0
 11
625.6748158019423
 21
576.6764649215153
 31
0.0
  0
LINE
  5
4DF2
102
{ACAD_REACTORS
330
4DED
102
}
330
1F
100
AcDbEntity
  8
粗实线
370
    -1
100
AcDbLine
 10
574.4650172712377
 20
603.8579049215083
 30
0.0
 11
651.1250300409833
 21
603.8579049215083
 31
0.0
  0
LINE
  5
4DF3
102
{ACAD_REACTORS
330
4DED
102
}
330
1F
100
AcDbEntity
  8
粗实线
370
    -1
100
AcDbLine
 10
651.1250300409833
 20
603.8579049215083
 30
0.0
 11
651.1250300409833
 21
577.721904921517
 31
0.0
  0
HATCH
  5
4DF4
330
1F
100
AcDbEntity
  8
剖切线
370
    -1
100
AcDbHatch
 10
0.0
 20
0.0
 30
0.0
210
0.0
220
0.0
230
1.0
  2
ANSI31
 70
     0
 71
     0
 91
        2
 92
        7
 72
     0
 73
     1
 93
        6
 10
614.1488398019451
 20
568.7544770783758
 10
614.1488398019451
 20
564.5727170783836
 10
615.481775801944
 20
564.5727170783836
 10
615.481775801944
 20
565.8272450783885
 10
619.9248958019475
 20
565.8272450783885
 10
619.9248958019475
 20
568.7544770783758
 97
        0
 92
        7
 72
     0
 73
     1
 93
        6
 10
619.9248958019475
 20
568.7544770783758
 10
619.9248958019475
 20
565.8272450783885
 10
624.3680158019365
 20
565.8272450783885
 10
624.3680158019365
 20
564.5727170783836
 10
625.7009518019427
 20
564.5727170783836
 10
625.7009518019427
 20
568.7544770783758
 97
        0
 75
     0
 76
     1
 52
90.0
 41
0.5227200000000001
 77
     0
 78
     1
 53
135.0
 43
3166.045201766685
 44
2352.178142169837
 45
-1.173539869900888
 46
-1.173539869900888
 79
     0
 47
0.1137768334985027
 98
        2
 10
615.9274170757512
 20
568.5876211753899
 10
621.7558136394678
 20
567.992438896949
  0
LINE
  5
4DF5
330
1F
100
AcDbEntity
  8
粗实线
 48
0.1
370
    -1
100
AcDbLine
 10
625.7009518019427
 20
564.572717078369
 30
0.0
 11
614.1488398019451
 21
564.572717078369
 31
0.0
  0
LINE
  5
4DF6
330
1F
100
AcDbEntity
  8
粗实线
 48
0.1
370
    -1
100
AcDbLine
 10
624.3680158019438
 20
565.827245078374
 30
0.0
 11
615.481775801944
 21
565.827245078374
 31
0.0
  0
LINE
  5
4DF7
330
1F
100
AcDbEntity
  8
粗实线
 48
0.1
370
    -1
100
AcDbLine
 10
625.7009518019427
 20
568.7544770783758
 30
0.0
 11
614.1488398019451
 21
568.7544770783758
 31
0.0
  0
LINE
  5
4DF8
330
1F
100
AcDbEntity
  8
粗实线
 48
0.1
370
    -1
100
AcDbLine
 10
622.5384958019445
 20
591.7541570783548
 30
0.0
 11
617.3112958019433
 21
591.7541570783548
 31
0.0
  0
LINE
  5
4DF9
330
1F
100
AcDbEntity
  8
粗实线
 48
0.1
370
    -1
100
AcDbLine
 10
623.061215801938
 20
591.2314370783757
 30
0.0
 11
616.7885758019497
 21
591.2314370783757
 31
0.0
  0
LINE
  5
4DFA
330
1F
100
AcDbEntity
  8
中心线
 48
0.1
370
    -1
100
AcDbLine
 10
619.9248958019402
 20
593.566756583216
 30
0.0
 11
619.9248958019402
 21
562.1741314826328
 31
0.0
  0
LINE
  5
4DFB
330
1F
100
AcDbEntity
  8
粗实线
 48
0.1
370
    -1
100
AcDbLine
 10
616.7885758019497
 20
591.2314370783757
 30
0.0
 11
616.7885758019497
 21
568.7544770783758
 31
0.0
  0
LINE
  5
4DFC
330
1F
100
AcDbEntity
  8
细实线
 48
0.1
370
    -1
100
AcDbLine
 10
617.3112958019433
 20
591.7541570783548
 30
0.0
 11
617.3112958019433
 21
568.7544770783758
 31
0.0
  0
LINE
  5
4DFD
330
1F
100
AcDbEntity
  8
粗实线
 48
0.1
370
    -1
100
AcDbLine
 10
623.061215801938
 20
591.2314370783757
 30
0.0
 11
623.061215801938
 21
568.7544770783758
 31
0.0
  0
LINE
  5
4DFE
330
1F
100
AcDbEntity
  8
粗实线
 48
0.1
370
    -1
100
AcDbLine
 10
623.2703038019486
 20
592.080462086528
 30
0.0
 11
623.2703038019486
 21
576.6764649215153
 31
0.0
  0
LINE
  5
4DFF
102
{ACAD_REACTORS
330
4DED
102
}
330
1F
100
AcDbEntity
  8
粗实线
 48
0.1
370
    -1
100
AcDbLine
 10
624.6293758019406
 20
592.080462086528
 30
0.0
 11
624.6293758019406
 21
577.721904921517
 31
0.0
  0
LINE
  5
4E00
330
1F
100
AcDbEntity
  8
粗实线
 48
0.1
370
    -1
100
AcDbLine
 10
625.6748158019423
 20
577.721904921517
 30
0.0
 11
625.6748158019423
 21
576.6764649215153
 31
0.0
  0
LINE
  5
4E01
330
1F
100
AcDbEntity
  8
细实线
 48
0.1
370
    -1
100
AcDbLine
 10
622.5384958019445
 20
591.7541570783548
 30
0.0
 11
622.5384958019445
 21
568.7544770783758
 31
0.0
  0
LINE
  5
4E02
330
1F
100
AcDbEntity
  8
粗实线
 48
0.1
370
    -1
100
AcDbLine
 10
615.481775801944
 20
565.827245078374
 30
0.0
 11
615.481775801944
 21
564.572717078369
 31
0.0
  0
LINE
  5
4E03
330
1F
100
AcDbEntity
  8
粗实线
 48
0.1
370
    -1
100
AcDbLine
 10
624.3680158019438
 20
565.827245078374
 30
0.0
 11
624.3680158019438
 21
564.572717078369
 31
0.0
  0
LINE
  5
4E04
330
1F
100
AcDbEntity
  8
粗实线
 48
0.1
370
    -1
100
AcDbLine
 10
614.1488398019451
 20
568.7544770783758
 30
0.0
 11
614.1488398019451
 21
564.572717078369
 31
0.0
  0
LINE
  5
4E05
330
1F
100
AcDbEntity
  8
粗实线
 48
0.1
370
    -1
100
AcDbLine
 10
625.7009518019427
 20
568.7544770783758
 30
0.0
 11
625.7009518019427
 21
564.572717078369
 31
0.0
  0
LINE
  5
4E06
330
1F
100
AcDbEntity
  8
粗实线
 48
0.1
370
    -1
100
AcDbLine
 10
617.3112958019433
 20
591.7541570783548
 30
0.0
 11
616.7885758019497
 21
591.2314370783757
 31
0.0
  0
LINE
  5
4E07
330
1F
100
AcDbEntity
  8
粗实线
 48
0.1
370
    -1
100
AcDbLine
 10
622.5384958019445
 20
591.7541570783548
 30
0.0
 11
623.061215801938
 21
591.2314370783757
 31
0.0
  0
LINE
  5
4E08
330
1F
100
AcDbEntity
  8
粗实线
370
    -1
100
AcDbLine
 10
616.5794878019465
 20
576.6764649215153
 30
0.0
 11
614.1749758019455
 21
576.6764649215153
 31
0.0
  0
LINE
  5
4E09
102
{ACAD_REACTORS
330
4DED
102
}
330
1F
100
AcDbEntity
  8
粗实线
 48
0.1
370
    -1
100
AcDbLine
 10
615.2204158019472
 20
592.080462086528
 30
0.0
 11
624.6293758019406
 21
592.080462086528
 31
0.0
  0
LINE
  5
4E0A
330
1F
100
AcDbEntity
  8
粗实线
 48
0.1
370
    -1
100
AcDbLine
 10
616.5794878019465
 20
592.080462086528
 30
0.0
 11
616.5794878019465
 21
576.6764649215153
 31
0.0
  0
LINE
  5
4E0B
102
{ACAD_REACTORS
330
4DED
102
}
330
1F
100
AcDbEntity
  8
粗实线
 48
0.1
370
    -1
100
AcDbLine
 10
615.2204158019472
 20
592.080462086528
 30
0.0
 11
615.2204158019472
 21
577.721904921517
 31
0.0
  0
LINE
  5
4E0C
330
1F
100
AcDbEntity
  8
粗实线
 48
0.1
370
    -1
100
AcDbLine
 10
614.1749758019455
 20
577.721904921517
 30
0.0
 11
614.1749758019455
 21
576.6764649215153
 31
0.0
  0
LINE
  5
4E0D
330
1F
100
AcDbEntity
  8
中心线
 48
0.1
370
    -1
100
AcDbLine
 10
619.9248958019402
 20
562.7564345005272
 30
0.0
 11
619.9248958019402
 21
583.0083560903191
 31
0.0
  0
HATCH
  5
4E0E
330
1F
100
AcDbEntity
  8
剖切线
370
    -1
100
AcDbHatch
 10
0.0
 20
0.0
 30
0.0
210
0.0
220
0.0
230
1.0
  2
ANSI31
 70
     0
 71
     0
 91
        1
 92
        7
 72
     1
 73
     1
 93
        8
 10
600.5953865873767
 20
571.7117706327814
 42
-0.3003703345698273
 10
596.9422718991432
 20
574.5212489977754
 42
0.0
 10
595.9033252523755
 20
577.5385691506423
 42
0.0
 10
593.9263593730307
 20
576.8578452078624
 42
0.0
 10
594.9653060197911
 20
573.8405250549955
 42
0.3003703345697881
 10
600.4449780521486
 20
569.6263075075154
 42
0.0070565129482686
 10
610.5195298509811
 20
569.0424907601015
 42
0.0
 10
610.5560334548813
 20
571.1337808263457
 42
-0.0070177978545288
 97
        0
 75
     0
 76
     1
 52
-0.9999999998710504
 41
0.5227200000000001
 77
     0
 78
     1
 53
43.99999999984526
 43
2359.691341460838
 44
-2108.625636492
 45
-1.152880039315387
 46
1.193842228874819
 79
     0
 47
0.1104702278856199
 98
        1
 10
604.483150536204
 20
571.0742513323536
  0
LINE
  5
4E0F
330
1F
100
AcDbEntity
  8
粗实线
370
    -1
100
AcDbLine
 10
610.5195298509811
 20
569.0424907600797
 30
0.0
 11
610.5560334548741
 21
571.1337808263312
 31
0.0
  0
LINE
  5
4E10
330
1F
100
AcDbEntity
  8
粗实线
370
    -1
100
AcDbLine
 10
629.3345837906259
 20
568.7140727719567
 30
0.0
 11
629.3710873945115
 21
570.8053628381937
 31
0.0
  0
ARC
  5
4E11
330
1F
100
AcDbEntity
  8
粗实线
370
    -1
100
AcDbCircle
 10
626.164837576684
 20
926.2405019314871
 30
0.0
 40
355.4496
100
AcDbArc
 50
265.8748354479637
 51
268.4884423862466
  0
ARC
  5
4E12
330
1F
100
AcDbEntity
  8
粗实线
370
    -1
100
AcDbCircle
 10
626.164837576684
 20
926.2405019314871
 30
0.0
 40
355.4496
100
AcDbArc
 50
269.4997133532673
 51
272.0817910569185
  0
ARC
  5
4E13
330
1F
100
AcDbEntity
  8
粗实线
370
    -1
100
AcDbCircle
 10
600.8962036578328
 20
575.8826968833497
 30
0.0
 40
4.181760000000001
100
AcDbArc
 50
198.9999999998003
 51
265.8748354479637
  0
ARC
  5
4E14
330
1F
100
AcDbEntity
  8
粗实线
370
    -1
100
AcDbCircle
 10
600.8962036578328
 20
575.8826968833497
 30
0.0
 40
6.272640000000003
100
AcDbArc
 50
198.9999999998003
 51
265.8748354479637
  0
ARC
  5
4E15
330
1F
100
AcDbEntity
  8
粗实线
370
    -1
100
AcDbCircle
 10
626.164837576684
 20
926.2405019314871
 30
0.0
 40
357.5404800000001
100
AcDbArc
 50
265.8748354479637
 51
272.0817910569185
  0
LINE
  5
4E16
330
1F
100
AcDbEntity
  8
粗实线
370
    -1
100
AcDbLine
 10
595.9033252523755
 20
577.5385691506423
 30
0.0
 11
596.9422718991432
 21
574.5212489977754
 31
0.0
  0
LINE
  5
4E17
330
1F
100
AcDbEntity
  8
粗实线
370
    -1
100
AcDbLine
 10
593.9263593730234
 20
576.8578452078406
 30
0.0
 11
594.9653060197911
 21
573.8405250549737
 31
0.0
  0
LINE
  5
4E18
330
1F
100
AcDbEntity
  8
粗实线
370
    -1
100
AcDbLine
 10
593.9263593730234
 20
576.8578452078406
 30
0.0
 11
595.9033252523755
 21
577.5385691506423
 31
0.0
  0
ARC
  5
4E19
330
1F
100
AcDbEntity
  8
粗实线
370
    -1
100
AcDbCircle
 10
639.1907674645067
 20
575.2142627857071
 30
0.0
 40
4.181760000000001
100
AcDbArc
 50
272.1251645521351
 51
339.0000000002045
  0
ARC
  5
4E1A
330
1F
100
AcDbEntity
  8
粗实线
370
    -1
100
AcDbCircle
 10
639.1907674645067
 20
575.2142627857071
 30
0.0
 40
6.272640000000003
100
AcDbArc
 50
272.1251645521351
 51
339.0000000002045
  0
LINE
  5
4E1B
330
1F
100
AcDbEntity
  8
粗实线
370
    -1
100
AcDbLine
 10
644.2383934520863
 20
576.6948773969021
 30
0.0
 11
643.0947767488201
 21
573.7156540290204
 31
0.0
  0
LINE
  5
4E1C
330
1F
100
AcDbEntity
  8
粗实线
370
    -1
100
AcDbLine
 10
646.1903980942393
 20
575.9455730185479
 30
0.0
 11
645.0467813909731
 21
572.9663496506806
 31
0.0
  0
LINE
  5
4E1D
330
1F
100
AcDbEntity
  8
粗实线
370
    -1
100
AcDbLine
 10
646.1903980942393
 20
575.9455730185479
 30
0.0
 11
644.2383934520863
 21
576.6948773969021
 31
0.0
  0
HATCH
  5
4E1E
330
1F
100
AcDbEntity
  8
剖切线
370
    -1
100
AcDbHatch
 10
0.0
 20
0.0
 30
0.0
210
0.0
220
0.0
230
1.0
  2
ANSI31
 70
     0
 71
     0
 91
        1
 92
        7
 72
     1
 73
     1
 93
        8
 10
629.3710873945115
 20
570.8053628381937
 42
0.0070177978545289
 10
639.3458380584148
 20
571.0353789863553
 42
0.3003703345697906
 10
643.0947767488274
 20
573.7156540290204
 42
0.0
 10
644.2383934520863
 20
576.6948773969021
 42
0.0
 10
646.1903980942393
 20
575.9455730185624
 42
0.0
 10
645.0467813909731
 20
572.9663496506806
 42
-0.3003703345697731
 10
639.4233733553651
 20
568.9459370866867
 42
-0.0070565129482688
 10
629.3345837906259
 20
568.7140727719349
 42
0.0
 97
        0
 75
     0
 76
     1
 52
-0.9999999998710504
 41
0.5227200000000001
 77
     0
 78
     1
 53
43.99999999984526
 43
2359.691341460838
 44
-2108.625636492
 45
-1.152880039315387
 46
1.193842228874819
 79
     0
 47
0.1104702278856199
 98
        1
 10
635.4381933276186
 20
570.5339290505768
  0
SPLINE
  5
4E1F
102
{ACAD_REACTORS
330
4DED
102
}
330
1F
100
AcDbEntity
  8
细实线
370
    -1
100
AcDbSpline
210
0.0
220
0.0
230
1.0
 70
     8
 71
     3
 72
    11
 73
     7
 74
     5
 42
0.0000000001
 43
0.0000000001
 44
0.0000000001
 40
0.0
 40
0.0
 40
0.0
 40
0.0
 40
7.678305049617222
 40
15.51330426520927
 40
22.68672978377008
 40
27.63083019926589
 40
27.63083019926589
 40
27.63083019926589
 40
27.63083019926589
 10
574.4650172712377
 20
603.8579049215083
 30
0.0
 10
575.9992770109558
 20
601.4888358930223
 30
0.0
 10
579.0991067273194
 20
596.70235132036
 30
0.0
 10
573.0957226159744
 20
589.5385934586604
 30
0.0
 10
577.7845584083585
 20
582.8268966919564
 30
0.0
 10
575.4269504644193
 20
579.2012241503076
 30
0.0
 10
574.4650172712377
 20
577.721904921517
 30
0.0
 11
574.4650172712377
 21
603.8579049215083
 31
0.0
 11
577.3027563426754
 21
596.7232286571349
 31
0.0
 11
574.964196228701
 21
589.2453713904002
 31
0.0
 11
576.4842822693486
 21
582.2348527149121
 31
0.0
 11
574.4650172712377
 21
577.721904921517
 31
0.0
  0
LINE
  5
4E20
330
1F
100
AcDbEntity
  8
粗实线
 62
     0
370
    -1
100
AcDbLine
 10
658.4090337363255
 20
543.6620778943148
 30
0.0
 11
657.0482629229832
 21
574.8288535682992
 31
0.0
  0
LINE
  5
4E21
330
1F
100
AcDbEntity
  8
粗实线
 62
     0
370
    -1
100
AcDbLine
 10
657.448719983297
 20
543.503748002721
 30
0.0
 11
656.0811842444914
 21
574.7866300013308
 31
0.0
  0
LINE
  5
4E22
330
1F
100
AcDbEntity
  8
粗实线
 62
     0
370
    -1
100
AcDbLine
 10
640.4947475730173
 20
577.721904921517
 30
0.0
 11
654.0261420526972
 21
577.721904921517
 31
0.0
  0
ARC
  5
4E23
330
1F
100
AcDbEntity
  8
粗实线
 62
     0
370
    -1
100
AcDbCircle
 10
654.0261420526972
 20
574.6969049215228
 30
0.0
 40
3.025
100
AcDbArc
 50
2.499999999754107
 51
90.0
  0
ARC
  5
4E24
330
1F
100
AcDbEntity
  8
粗实线
 62
     0
370
    -1
100
AcDbCircle
 10
654.0261420526972
 20
574.6969049215228
 30
0.0
 40
2.057
100
AcDbArc
 50
2.499999999754107
 51
90.0
  0
LINE
  5
4E25
330
1F
100
AcDbEntity
  8
粗实线
 62
     0
370
    -1
100
AcDbLine
 10
638.9650449117639
 20
576.7555989215294
 30
0.0
 11
654.0261420526972
 21
576.7539049215162
 31
0.0
  0
LINE
  5
4E26
330
1F
100
AcDbEntity
  8
粗实线
 62
     0
370
    -1
100
AcDbLine
 10
654.0261420526972
 20
577.721904921517
 30
0.0
 11
667.9584557076546
 21
577.721904921517
 31
0.0
  0
LINE
  5
4E27
330
1F
100
AcDbEntity
  8
粗实线
370
    -1
100
AcDbLine
 10
638.9650449117639
 20
577.721904921517
 30
0.0
 11
638.9650449117639
 21
576.7555989215294
 31
0.0
  0
LINE
  5
4E28
330
1F
100
AcDbEntity
  8
粗实线
370
    -1
100
AcDbLine
 10
656.0811842444914
 20
576.9166856741837
 30
0.0
 11
673.5738994330118
 21
593.0024702047928
 31
0.0
  0
LINE
  5
4E29
330
1F
100
AcDbEntity
  8
粗实线
370
    -1
100
AcDbLine
 10
673.5738994330118
 20
593.0024702047928
 30
0.0
 11
674.8727293373763
 21
593.0024702047928
 31
0.0
  0
LINE
  5
4E2A
330
1F
100
AcDbEntity
  8
粗实线
370
    -1
100
AcDbLine
 10
612.7950236561178
 20
603.8579049215083
 30
0.0
 11
604.6432317522217
 21
613.2708319121199
 31
0.0
  0
LINE
  5
4E2B
330
1F
100
AcDbEntity
  8
粗实线
370
    -1
100
AcDbLine
 10
604.6432317522217
 20
613.2708319121199
 30
0.0
 11
601.9263105546729
 21
613.2708319121199
 31
0.0
  0
LINE
  5
4E2C
330
1F
100
AcDbEntity
  8
粗实线
370
    -1
100
AcDbLine
 10
600.4449780522723
 20
569.6263075074863
 30
0.0
 11
592.5179997461405
 21
559.3692511490341
 31
0.0
  0
LINE
  5
4E2D
330
1F
100
AcDbEntity
  8
粗实线
370
    -1
100
AcDbLine
 10
592.5179997461405
 20
559.3692511490341
 30
0.0
 11
588.8362398300546
 21
559.3692511490341
 31
0.0
  0
LINE
  5
4E2E
330
1F
100
AcDbEntity
  8
粗实线
370
    -1
100
AcDbLine
 10
614.6365449304526
 20
565.0448604512973
 30
0.0
 11
615.3948733310558
 21
549.8089608533306
 31
0.0
  0
LINE
  5
4E2F
330
1F
100
AcDbEntity
  8
粗实线
370
    -1
100
AcDbLine
 10
617.4337316418118
 20
549.8089608533306
 30
0.0
 11
615.3948733310558
 21
549.8089608533306
 31
0.0
  0
MTEXT
  5
4E30
330
1F
100
AcDbEntity
  8
粗实线
370
    -1
100
AcDbMText
 10
676.5245024780475
 20
596.3651274310729
 30
0.0
 40
4.840000000000001
 41
502.578612573176
 71
     1
 72
     5
  1
{\fTahoma|b0|i0|c0|p34;SINK}
 73
     1
 44
1.0
  0
MTEXT
  5
4E31
330
1F
100
AcDbEntity
  8
粗实线
370
    -1
100
AcDbMText
 10
558.8841926154078
 20
616.5445361968565
 30
0.0
 40
4.840000000000001
 41
502.578612573176
 71
     1
 72
     5
  1
{\fTahoma|b0|i0|c0|p34;COUNTERTOP}
 73
     1
 44
1.0
  0
MTEXT
  5
4E32
330
1F
100
AcDbEntity
  8
粗实线
370
    -1
100
AcDbMText
 10
556.0730601232449
 20
561.9185988977885
 30
0.0
 40
4.840000000000001
 41
502.578612573176
 71
     1
 72
     5
  1
{\fTahoma|b0|i0|c0|p34;FASTENER}
 73
     1
 44
1.0
  0
MTEXT
  5
4E33
330
1F
100
AcDbEntity
  8
粗实线
370
    -1
100
AcDbMText
 10
618.3723824569774
 20
552.9734996662561
 30
0.0
 40
4.840000000000001
 41
502.578612573176
 71
     1
 72
     5
  1
{\fTahoma|b0|i0|c0|p34;SCREWS}
 73
     1
 44
1.0
  0
MTEXT
  5
4E34
330
1F
100
AcDbEntity
  8
粗实线
370
    -1
100
AcDbMText
 10
482.603745115232
 20
429.8138641519951
 30
0.0
 40
6.050000000000001
 41
502.578612573176
 71
     1
 72
     5
  1
\fArial|b0|i0|c0|p34;Use inside line for negative reveal mount cut:\PSink wall is covered \U+00BC\U+201D inside the edge of countertop opening.
 73
     1
 44
1.0
  0
MTEXT
  5
4E35
330
1F
100
AcDbEntity
  8
粗实线
370
    -1
100
AcDbMText
 10
482.603745115232
 20
396.6353042489324
 30
0.0
 40
6.050000000000001
 41
502.578612573176
 71
     1
 72
     5
  1
\fArial|b0|i0|c0|p34;Please check actual template against physical sink unit for most accurate cut.
 73
     1
 44
1.0
  0
MTEXT
  5
4E37
330
1F
100
AcDbEntity
  8
粗实线
370
    -1
100
AcDbMText
 10
482.603745115232
 20
500.8238696882005
 30
0.0
 40
6.050000000000001
 41
502.578612573176
 71
     1
 72
     5
  1
\fArial|b0|i0|c0|p34;Use outside line for reveal mount cut:\PSink rim is \U+00BC\U+201D revealed from the countertop opening.
 73
     1
 44
1.0
  0
MTEXT
  5
4E38
330
1F
100
AcDbEntity
  8
粗实线
370
    -1
100
AcDbMText
 10
482.603745115232
 20
466.2465368603631
 30
0.0
 40
6.050000000000001
 41
502.578612573176
 71
     1
 72
     5
  1
\fArial|b0|i0|c0|p34;Use middle line for flush mount cut:\PSink wall is flush to the edge of countertop opening.
 73
     1
 44
1.0
  0
DIMENSION
  5
4EBF
330
1F
100
AcDbEntity
  8
标注
370
    -1
100
AcDbDimension
  2
*D22
 10
458.6255154849496
 20
758.1606769779117
 30
0.0
 11
623.6255154849778
 21
758.1606769779117
 31
0.0
 70
   160
  1
{\fArial|b0|i0|c0|p34;<>}
 71
     5
 42
330.0000000000045
  3
英寸
100
AcDbAlignedDimension
 13
788.6255154849541
 23
698.7531666736
 33
0.0
 14
458.6255154849496
 24
706.7531666736
 34
0.0
100
AcDbRotatedDimension
1001
ACAD
1000
DSTYLE
1002
{
1070
    41
1040
5.0
1070
   140
1040
10.0
1070
   371
1070
     0
1002
}
  0
DIMENSION
  5
4EC0
330
1F
100
AcDbEntity
  8
标注
370
    -1
100
AcDbDimension
  2
*D23
 10
390.1255091578896
 20
280.0682533141267
 30
0.0
 11
390.1255091578896
 21
495.0682533141227
 31
0.0
 70
   160
  1
{\fArial|b0|i0|c0|p34;<>}
 71
     5
 42
418.0000000000002
  3
英寸
100
AcDbAlignedDimension
 13
455.365041332791
 23
698.0682533141269
 33
0.0
 14
456.865041332791
 24
280.0682533141267
 34
0.0
 50
90.0
100
AcDbRotatedDimension
1001
ACAD
1000
DSTYLE
1002
{
1070
    41
1040
5.0
1070
   140
1040
10.0
1070
   371
1070
     0
1002
}
  0
DIMENSION
  5
4EC1
330
1F
100
AcDbEntity
  8
标注
370
    -1
100
AcDbDimension
  2
*D24
 10
452.2755154849513
 20
780.1606769779117
 30
0.0
 11
623.6255050469954
 21
780.1606769779117
 31
0.0
 70
   160
  1
{\fArial|b0|i0|c0|p34;<>}
 71
     5
 42
342.7000000000066
  3
英寸
100
AcDbAlignedDimension
 13
794.9755154849579
 23
699.2531666736
 33
0.0
 14
452.2755154849513
 24
707.7531666736
 34
0.0
100
AcDbRotatedDimension
1001
ACAD
1000
DSTYLE
1002
{
1070
    41
1040
5.0
1070
   140
1040
10.0
1070
   371
1070
     0
1002
}
  0
DIMENSION
  5
4EC2
330
1F
100
AcDbEntity
  8
标注
370
    -1
100
AcDbDimension
  2
*D25
 10
366.1255091578896
 20
273.7182533141296
 30
0.0
 11
366.1255091578896
 21
495.0682533141232
 31
0.0
 70
   160
  1
{\fArial|b0|i0|c0|p34;<>}
 71
     5
 42
430.6999999999953
  3
英寸
100
AcDbAlignedDimension
 13
455.865041332791
 23
704.4182533141249
 33
0.0
 14
457.365041332791
 24
273.7182533141295
 34
0.0
 50
90.0
100
AcDbRotatedDimension
1001
ACAD
1000
DSTYLE
1002
{
1070
    41
1040
5.0
1070
   140
1040
10.0
1070
   371
1070
     0
1002
}
  0
DIMENSION
  5
4EC3
330
1F
100
AcDbEntity
  8
标注
370
    -1
100
AcDbDimension
  2
*D26
 10
464.9755154849511
 20
735.9294406087957
 30
0.0
 11
623.6255154849796
 21
735.9294406087957
 31
0.0
 70
   160
  1
{\fArial|b0|i0|c0|p34;<>}
 71
     5
 42
317.3000000000065
  3
英寸
100
AcDbAlignedDimension
 13
782.2755154849576
 23
698.2531666736
 33
0.0
 14
464.9755154849511
 24
707.2531666736
 34
0.0
100
AcDbRotatedDimension
1001
ACAD
1000
DSTYLE
1002
{
1070
    41
1040
5.0
1070
   140
1040
10.0
1070
   371
1070
     0
1002
}
  0
DIMENSION
  5
4EC4
330
1F
100
AcDbEntity
  8
标注
370
    -1
100
AcDbDimension
  2
*D27
 10
413.3967981689971
 20
286.4182533141282
 30
0.0
 11
413.3967981689971
 21
495.0682533141226
 31
0.0
 70
   160
  1
{\fArial|b0|i0|c0|p34;<>}
 71
     5
 42
405.2999999999973
  3
英寸
100
AcDbAlignedDimension
 13
454.365041332791
 23
691.7182533141255
 33
0.0
 14
456.365041332791
 24
286.4182533141282
 34
0.0
 50
90.0
100
AcDbRotatedDimension
1001
ACAD
1000
DSTYLE
1002
{
1070
    41
1040
5.0
1070
   140
1040
10.0
1070
   371
1070
     0
1002
}
  0
MTEXT
  5
4FCA
330
1F
100
AcDbEntity
  8
粗实线
370
    -1
100
AcDbMText
 10
696.0650892310136
 20
307.3056883412514
 30
0.0
 40
6.424704000000003
 41
246.4553837882124
 71
     1
 72
     5
  1
{\fTahoma|b0|i0|c134|p34;1815}
  7
样式 8
 73
     1
 44
1.0
  0
DIMENSION
  5
504A
330
1F
100
AcDbEntity
  8
标注
370
    -1
100
AcDbDimension
  2
*D28
 10
788.6255154849557
 20
479.6606699354476
 30
0.0
 11
735.7021866991415
 21
479.6606699354476
 31
0.0
 70
   160
  1
{\fArial|b0|i0|c0|p34;<>}
 71
     5
 42
6.350000000002183
  3
英寸
100
AcDbAlignedDimension
 13
782.2755154849535
 23
489.0682533141245
 33
0.0
 14
788.6255154849557
 24
489.0682533141172
 34
0.0
100
AcDbRotatedDimension
1001
ACAD
1000
DSTYLE
1002
{
1070
   140
1040
10.0
1070
   371
1070
     0
1070
    41
1040
5.0
1002
}
  0
DIMENSION
  5
504B
330
1F
100
AcDbEntity
  8
标注
370
    -1
100
AcDbDimension
  2
*D29
 10
794.9755154849579
 20
458.1606699354476
 30
0.0
 11
742.0521866991437
 21
458.1606699354476
 31
0.0
 70
   160
  1
{\fArial|b0|i0|c0|p34;<>}
 71
     5
 42
6.350000000002183
  3
英寸
100
AcDbAlignedDimension
 13
788.6255154849557
 23
489.0682533141172
 33
0.0
 14
794.9755154849579
 24
489.0682533141245
 34
0.0
100
AcDbRotatedDimension
1001
ACAD
1000
DSTYLE
1002
{
1070
    41
1040
5.0
1070
   140
1040
10.0
1070
   371
1070
     0
1002
}
  0
ENDSEC
  0
SECTION
  2
OBJECTS
  0
DICTIONARY
  5
C
330
0
100
AcDbDictionary
281
     1
  3
ACAD_COLOR
350
3513
  3
ACAD_GROUP
350
D
  3
ACAD_LAYOUT
350
1A
  3
ACAD_MATERIAL
350
350F
  3
ACAD_MLINESTYLE
350
17
  3
ACAD_PLOTSETTINGS
350
19
  3
ACAD_PLOTSTYLENAME
350
E
  3
ACAD_TABLESTYLE
350
E9
  3
ACAD_VISUALSTYLE
350
28
  3
ACDBHEADERROUNDTRIPXREC
350
5203
  3
AcDbVariableDictionary
350
366A
  0
DICTIONARY
  5
520C
330
8
100
AcDbDictionary
280
     1
281
     1
  3
ACAD_XREC_ROUNDTRIP
360
520D
  0
DICTIONARY
  5
36E2
330
2
100
AcDbDictionary
280
     1
281
     1
  3
ACAD_LAYERSTATES
360
36E3
  0
DICTIONARY
  5
3513
102
{ACAD_REACTORS
330
C
102
}
330
C
100
AcDbDictionary
281
     1
  0
DICTIONARY
  5
D
102
{ACAD_REACTORS
330
C
102
}
330
C
100
AcDbDictionary
281
     1
  0
DICTIONARY
  5
1A
102
{ACAD_REACTORS
330
C
102
}
330
C
100
AcDbDictionary
281
     1
  3
Layout1
350
1E
  3
Layout2
350
24
  3
Model
350
22
  0
DICTIONARY
  5
350F
102
{ACAD_REACTORS
330
C
102
}
330
C
100
AcDbDictionary
281
     1
  3
ByBlock
350
3511
  3
ByLayer
350
3510
  3
Global
350
3512
  0
DICTIONARY
  5
17
102
{ACAD_REACTORS
330
C
102
}
330
C
100
AcDbDictionary
281
     1
  3
Standard
350
18
  0
DICTIONARY
  5
19
102
{ACAD_REACTORS
330
C
102
}
330
C
100
AcDbDictionary
281
     1
  0
ACDBDICTIONARYWDFLT
  5
E
102
{ACAD_REACTORS
330
C
102
}
330
C
100
AcDbDictionary
281
     1
  3
Normal
350
F
100
AcDbDictionaryWithDefault
340
F
  0
DICTIONARY
  5
E9
102
{ACAD_REACTORS
330
C
102
}
330
C
100
AcDbDictionary
281
     1
  0
DICTIONARY
  5
28
102
{ACAD_REACTORS
330
C
102
}
330
C
100
AcDbDictionary
281
     1
  3
2dWireframe
350
2D
  3
3D Hidden
350
2F
  3
3dWireframe
350
2E
  3
Basic
350
30
  3
Brighten
350
34
  3
ColorChange
350
38
  3
Conceptual
350
32
  3
Dim
350
33
  3
Facepattern
350
37
  3
Flat
350
29
  3
FlatWithEdges
350
2A
  3
Gouraud
350
2B
  3
GouraudWithEdges
350
2C
  3
Linepattern
350
36
  3
Realistic
350
31
  3
Thicken
350
35
  0
DICTIONARY
  5
5203
102
{ACAD_REACTORS
330
C
102
}
330
C
100
AcDbDictionary
281
     1
  3
COLORDICT
350
5204
  3
MATERIALDICT
350
5205
  0
DICTIONARY
  5
366A
102
{ACAD_REACTORS
330
C
102
}
330
C
100
AcDbDictionary
281
     1
  3
CTABLESTYLE
350
366B
  0
XRECORD
  5
520D
102
{ACAD_REACTORS
330
520C
102
}
330
520C
100
AcDbXrecord
280
     1
102
VTR_0.000_0.000_1.000_1.000_VISUALSTYLE
340
2D
102
VTR_0.000_0.000_1.000_1.000_GRIDDISPLAY
 70
     3
102
VTR_0.000_0.000_1.000_1.000_GRIDMAJOR
 70
     5
102
VTR_0.000_0.000_1.000_1.000_DEFAULTLIGHTING
280
     1
102
VTR_0.000_0.000_1.000_1.000_DEFAULTLIGHTINGTYPE
 70
     1
102
VTR_0.000_0.000_1.000_1.000_BRIGHTNESS
141
0.0
102
VTR_0.000_0.000_1.000_1.000_CONTRAST
142
0.0
  0
DICTIONARY
  5
36E3
102
{ACAD_REACTORS
330
36E2
102
}
330
36E2
100
AcDbDictionary
281
     1
  0
LAYOUT
  5
1E
102
{ACAD_REACTORS
330
1A
102
}
330
1A
100
AcDbPlotSettings
  1

  2
none_device
  4

  6

 40
0.0
 41
0.0
 42
0.0
 43
0.0
 44
0.0
 45
0.0
 46
0.0
 47
0.0
 48
0.0
 49
0.0
140
0.0
141
0.0
142
1.0
143
1.0
 70
   688
 72
     0
 73
     0
 74
     5
  7

 75
    16
147
1.0
148
0.0
149
0.0
100
AcDbLayout
  1
Layout1
 70
     1
 71
     1
 10
0.0
 20
0.0
 11
12.0
 21
9.0
 12
0.0
 22
0.0
 32
0.0
 14
1.000000000000000E+20
 24
1.000000000000000E+20
 34
1.000000000000000E+20
 15
-1.000000000000000E+20
 25
-1.000000000000000E+20
 35
-1.000000000000000E+20
146
0.0
 13
0.0
 23
0.0
 33
0.0
 16
1.0
 26
0.0
 36
0.0
 17
0.0
 27
1.0
 37
0.0
 76
     0
330
1B
  0
LAYOUT
  5
24
102
{ACAD_REACTORS
330
1A
102
}
330
1A
100
AcDbPlotSettings
  1

  2
none_device
  4

  6

 40
0.0
 41
0.0
 42
0.0
 43
0.0
 44
0.0
 45
0.0
 46
0.0
 47
0.0
 48
0.0
 49
0.0
140
0.0
141
0.0
142
1.0
143
1.0
 70
   688
 72
     0
 73
     0
 74
     5
  7

 75
    16
147
1.0
148
0.0
149
0.0
100
AcDbLayout
  1
Layout2
 70
     1
 71
     2
 10
0.0
 20
0.0
 11
0.0
 21
0.0
 12
0.0
 22
0.0
 32
0.0
 14
0.0
 24
0.0
 34
0.0
 15
0.0
 25
0.0
 35
0.0
146
0.0
 13
0.0
 23
0.0
 33
0.0
 16
1.0
 26
0.0
 36
0.0
 17
0.0
 27
1.0
 37
0.0
 76
     0
330
23
  0
LAYOUT
  5
22
102
{ACAD_REACTORS
330
1A
102
}
330
1A
100
AcDbPlotSettings
  1

  2
pdfFactory
  4
A4
  6

 40
6.35
 41
6.350000000000009
 42
6.350000000000017
 43
6.35
 44
210.0
 45
297.0
 46
-0.0000000000000025
 47
2.644949494949814
 48
160.3029993530645
 49
119.4020000793261
140
1188.489077188242
141
846.4764408342035
142
1.0
143
3.685121341889901
 70
  1716
 72
     1
 73
     1
 74
     4
  7
Monochrome.ctb
 75
     0
147
0.2713614850704356
148
0.0
149
0.0
100
AcDbLayout
  1
Model
 70
     1
 71
     0
 10
0.0
 20
0.0
 11
12.0
 21
9.0
 12
0.0
 22
0.0
 32
0.0
 14
160.3029993530645
 24
119.4020000793261
 34
0.0
 15
2331.989077188242
 25
846.4764408342035
 35
0.0
146
0.0
 13
0.0
 23
0.0
 33
0.0
 16
1.0
 26
0.0
 36
0.0
 17
0.0
 27
1.0
 37
0.0
 76
     0
330
1F
331
27
  0
MATERIAL
  5
3511
102
{ACAD_REACTORS
330
350F
102
}
102
{ACAD_XDICTIONARY
360
5206
102
}
330
350F
100
AcDbMaterial
  1
ByBlock
  0
MATERIAL
  5
3510
102
{ACAD_REACTORS
330
350F
102
}
102
{ACAD_XDICTIONARY
360
5208
102
}
330
350F
100
AcDbMaterial
  1
ByLayer
  0
MATERIAL
  5
3512
102
{ACAD_REACTORS
330
350F
102
}
102
{ACAD_XDICTIONARY
360
520A
102
}
330
350F
100
AcDbMaterial
  1
Global
  0
MLINESTYLE
  5
18
102
{ACAD_REACTORS
330
17
102
}
330
17
100
AcDbMlineStyle
  2
STANDARD
 70
     0
  3

 62
   256
 51
90.0
 52
90.0
 71
     2
 49
0.5
 62
   256
  6
BYLAYER
 49
-0.5
 62
   256
  6
BYLAYER
  0
ACDBPLACEHOLDER
  5
F
102
{ACAD_REACTORS
330
E
102
}
330
E
  0
VISUALSTYLE
  5
2D
102
{ACAD_REACTORS
330
28
102
}
330
28
100
AcDbVisualStyle
  2
2dWireframe
 70
     4
 71
     0
 72
     2
 73
     0
 90
        0
 40
-0.6
 41
-30.0
 62
     5
 63
     7
 74
     1
 91
        4
 64
     7
 65
   257
 75
     1
175
     1
 42
1.0
 92
        0
 66
   257
 43
1.0
 76
     1
 77
     6
 78
     2
 67
     7
 79
     5
170
     0
171
     0
290
     0
174
     0
 93
        1
 44
0.0
173
     0
291
     0
 45
0.0
1001
ACAD
1000
AcDbSavedByObjectVersion
1070
     0
  0
VISUALSTYLE
  5
2F
102
{ACAD_REACTORS
330
28
102
}
330
28
100
AcDbVisualStyle
  2
3D Hidden
 70
     6
 71
     1
 72
     2
 73
     2
 90
        0
 40
-0.6
 41
-30.0
 62
     5
 63
     7
 74
     2
 91
        2
 64
     7
 65
   257
 75
     2
175
     1
 42
40.0
 92
        0
 66
   257
 43
1.0
 76
     1
 77
     6
 78
     2
 67
     7
 79
     3
170
     0
171
     0
290
     0
174
     0
 93
        1
 44
0.0
173
     0
291
     0
 45
0.0
1001
ACAD
1000
AcDbSavedByObjectVersion
1070
     0
  0
VISUALSTYLE
  5
2E
102
{ACAD_REACTORS
330
28
102
}
330
28
100
AcDbVisualStyle
  2
3dWireframe
 70
     5
 71
     0
 72
     2
 73
     0
 90
        0
 40
-0.6
 41
-30.0
 62
     5
 63
     7
 74
     1
 91
        4
 64
     7
 65
   257
 75
     1
175
     1
 42
1.0
 92
        0
 66
   257
 43
1.0
 76
     1
 77
     6
 78
     2
 67
     7
 79
     5
170
     0
171
     0
290
     0
174
     0
 93
        1
 44
0.0
173
     0
291
     0
 45
0.0
1001
ACAD
1000
AcDbSavedByObjectVersion
1070
     0
  0
VISUALSTYLE
  5
30
102
{ACAD_REACTORS
330
28
102
}
330
28
100
AcDbVisualStyle
  2
Basic
 70
     7
 71
     1
 72
     0
 73
     1
 90
        0
 40
-0.6
 41
-30.0
 62
     5
 63
     7
 74
     0
 91
        4
 64
     7
 65
   257
 75
     1
175
     1
 42
1.0
 92
        8
 66
     7
 43
1.0
 76
     1
 77
     6
 78
     2
 67
     7
 79
     5
170
     0
171
     0
290
     0
174
     0
 93
        1
 44
0.0
173
     0
291
     1
 45
0.0
1001
ACAD
1000
AcDbSavedByObjectVersion
1070
     0
  0
VISUALSTYLE
  5
34
102
{ACAD_REACTORS
330
28
102
}
330
28
100
AcDbVisualStyle
  2
Brighten
 70
    12
 71
     2
 72
     2
 73
     0
 90
        0
 40
-0.6
 41
-30.0
 62
     5
 63
     7
 74
     1
 91
        4
 64
     7
 65
   257
 75
     1
175
     1
 42
1.0
 92
        8
 66
     7
 43
1.0
 76
     1
 77
     6
 78
     2
 67
     7
 79
     5
170
     0
171
     0
290
     0
174
     0
 93
        1
 44
50.0
173
     0
291
     1
 45
0.0
1001
ACAD
1000
AcDbSavedByObjectVersion
1070
     0
  0
VISUALSTYLE
  5
38
102
{ACAD_REACTORS
330
28
102
}
330
28
100
AcDbVisualStyle
  2
ColorChange
 70
    16
 71
     2
 72
     2
 73
     3
 90
        0
 40
-0.6
 41
-30.0
 62
     5
 63
     8
 74
     1
 91
        4
 64
     7
 65
   257
 75
     1
175
     1
 42
1.0
 92
        8
 66
     8
 43
1.0
 76
     1
 77
     6
 78
     2
 67
     7
 79
     5
170
     0
171
     0
290
     0
174
     0
 93
        1
 44
0.0
173
     0
291
     1
 45
0.0
1001
ACAD
1000
AcDbSavedByObjectVersion
1070
     0
  0
VISUALSTYLE
  5
32
102
{ACAD_REACTORS
330
28
102
}
330
28
100
AcDbVisualStyle
  2
Conceptual
 70
     9
 71
     3
 72
     2
 73
     0
 90
        0
 40
-0.6
 41
-30.0
 62
     5
 63
     7
 74
     2
 91
        2
 64
     7
 65
   257
 75
     1
175
     1
 42
40.0
 92
        8
 66
     7
 43
1.0
 76
     1
 77
     6
 78
     2
 67
     7
 79
     3
170
     0
171
     0
290
     0
174
     0
 93
        1
 44
0.0
173
     0
291
     0
 45
0.0
1001
ACAD
1000
AcDbSavedByObjectVersion
1070
     0
  0
VISUALSTYLE
  5
33
102
{ACAD_REACTORS
330
28
102
}
330
28
100
AcDbVisualStyle
  2
Dim
 70
    11
 71
     2
 72
     2
 73
     0
 90
        0
 40
-0.6
 41
-30.0
 62
     5
 63
     7
 74
     1
 91
        4
 64
     7
 65
   257
 75
     1
175
     1
 42
1.0
 92
        8
 66
     7
 43
1.0
 76
     1
 77
     6
 78
     2
 67
     7
 79
     5
170
     0
171
     0
290
     0
174
     0
 93
        1
 44
-50.0
173
     0
291
     1
 45
0.0
1001
ACAD
1000
AcDbSavedByObjectVersion
1070
     0
  0
VISUALSTYLE
  5
37
102
{ACAD_REACTORS
330
28
102
}
330
28
100
AcDbVisualStyle
  2
Facepattern
 70
    15
 71
     2
 72
     2
 73
     0
 90
        0
 40
-0.6
 41
-30.0
 62
     5
 63
     7
 74
     1
 91
        4
 64
     7
 65
   257
 75
     1
175
     1
 42
1.0
 92
        8
 66
     7
 43
1.0
 76
     1
 77
     6
 78
     2
 67
     7
 79
     5
170
     0
171
     0
290
     0
174
     0
 93
        1
 44
0.0
173
     0
291
     1
 45
0.0
1001
ACAD
1000
AcDbSavedByObjectVersion
1070
     0
  0
VISUALSTYLE
  5
29
102
{ACAD_REACTORS
330
28
102
}
330
28
100
AcDbVisualStyle
  2
Flat
 70
     0
 71
     2
 72
     1
 73
     1
 90
        2
 40
-0.6
 41
30.0
 62
     5
 63
     7
 74
     0
 91
        4
 64
     7
 65
   257
 75
     1
175
     1
 42
1.0
 92
        8
 66
     7
 43
1.0
 76
     1
 77
     6
 78
     2
 67
     7
 79
     5
170
     0
171
     0
290
     0
174
     0
 93
       13
 44
0.0
173
     0
291
     1
 45
0.0
1001
ACAD
1000
AcDbSavedByObjectVersion
1070
     0
  0
VISUALSTYLE
  5
2A
102
{ACAD_REACTORS
330
28
102
}
330
28
100
AcDbVisualStyle
  2
FlatWithEdges
 70
     1
 71
     2
 72
     1
 73
     1
 90
        2
 40
-0.6
 41
30.0
 62
     5
 63
     7
 74
     1
 91
        4
 64
     7
 65
   257
 75
     1
175
     1
 42
1.0
 92
        0
 66
   257
 43
1.0
 76
     1
 77
     6
 78
     2
 67
     7
 79
     5
170
     0
171
     0
290
     0
174
     0
 93
       13
 44
0.0
173
     0
291
     1
 45
0.0
1001
ACAD
1000
AcDbSavedByObjectVersion
1070
     0
  0
VISUALSTYLE
  5
2B
102
{ACAD_REACTORS
330
28
102
}
330
28
100
AcDbVisualStyle
  2
Gouraud
 70
     2
 71
     2
 72
     2
 73
     1
 90
        2
 40
-0.6
 41
30.0
 62
     5
 63
     7
 74
     0
 91
        4
 64
     7
 65
   257
 75
     1
175
     1
 42
1.0
 92
        0
 66
     7
 43
1.0
 76
     1
 77
     6
 78
     2
 67
     7
 79
     5
170
     0
171
     0
290
     0
174
     0
 93
       13
 44
0.0
173
     0
291
     1
 45
0.0
1001
ACAD
1000
AcDbSavedByObjectVersion
1070
     0
  0
VISUALSTYLE
  5
2C
102
{ACAD_REACTORS
330
28
102
}
330
28
100
AcDbVisualStyle
  2
GouraudWithEdges
 70
     3
 71
     2
 72
     2
 73
     1
 90
        2
 40
-0.6
 41
30.0
 62
     5
 63
     7
 74
     1
 91
        4
 64
     7
 65
   257
 75
     1
175
     1
 42
1.0
 92
        0
 66
   257
 43
1.0
 76
     1
 77
     6
 78
     2
 67
     7
 79
     5
170
     0
171
     0
290
     0
174
     0
 93
       13
 44
0.0
173
     0
291
     1
 45
0.0
1001
ACAD
1000
AcDbSavedByObjectVersion
1070
     0
  0
VISUALSTYLE
  5
36
102
{ACAD_REACTORS
330
28
102
}
330
28
100
AcDbVisualStyle
  2
Linepattern
 70
    14
 71
     2
 72
     2
 73
     0
 90
        0
 40
-0.6
 41
-30.0
 62
     5
 63
     7
 74
     1
 91
        4
 64
     7
 65
   257
 75
     7
175
     7
 42
1.0
 92
        8
 66
     7
 43
1.0
 76
     1
 77
     6
 78
     2
 67
     7
 79
     5
170
     0
171
     0
290
     0
174
     0
 93
        1
 44
0.0
173
     0
291
     1
 45
0.0
1001
ACAD
1000
AcDbSavedByObjectVersion
1070
     0
  0
VISUALSTYLE
  5
31
102
{ACAD_REACTORS
330
28
102
}
330
28
100
AcDbVisualStyle
  2
Realistic
 70
     8
 71
     2
 72
     2
 73
     0
 90
        0
 40
-0.6
 41
-30.0
 62
     5
 63
     7
 74
     1
 91
        0
 64
     7
 65
   257
 75
     1
175
     1
 42
1.0
 92
        8
 66
     8
 43
1.0
 76
     1
 77
     6
 78
     2
 67
     7
 79
     5
170
     0
171
     0
290
     0
174
     0
 93
       13
 44
0.0
173
     0
291
     0
 45
0.0
1001
ACAD
1000
AcDbSavedByObjectVersion
1070
     0
  0
VISUALSTYLE
  5
35
102
{ACAD_REACTORS
330
28
102
}
330
28
100
AcDbVisualStyle
  2
Thicken
 70
    13
 71
     2
 72
     2
 73
     0
 90
        0
 40
-0.6
 41
-30.0
 62
     5
 63
     7
 74
     1
 91
        4
 64
     7
 65
   257
 75
     1
175
     1
 42
1.0
 92
       12
 66
     7
 43
1.0
 76
     1
 77
     6
 78
     2
 67
     7
 79
     5
170
     0
171
     0
290
     0
174
     0
 93
        1
 44
0.0
173
     0
291
     1
 45
0.0
1001
ACAD
1000
AcDbSavedByObjectVersion
1070
     0
  0
XRECORD
  5
5204
102
{ACAD_REACTORS
330
5203
102
}
330
5203
100
AcDbXrecord
280
     1
340
3513
  0
XRECORD
  5
5205
102
{ACAD_REACTORS
330
5203
102
}
330
5203
100
AcDbXrecord
280
     1
340
350F
  0
DICTIONARYVAR
  5
366B
102
{ACAD_REACTORS
330
366A
102
}
330
366A
100
DictionaryVariables
280
     0
  1
Standard
  0
DICTIONARY
  5
5206
330
3511
100
AcDbDictionary
280
     1
281
     1
  3
ACAD_XREC_ROUNDTRIP
360
5207
  0
DICTIONARY
  5
5208
330
3510
100
AcDbDictionary
280
     1
281
     1
  3
ACAD_XREC_ROUNDTRIP
360
5209
  0
DICTIONARY
  5
520A
330
3512
100
AcDbDictionary
280
     1
281
     1
  3
ACAD_XREC_ROUNDTRIP
360
520B
  0
XRECORD
  5
5207
102
{ACAD_REACTORS
330
5206
102
}
330
5206
100
AcDbXrecord
280
     1
102
MATERIAL
148
0.0
149
0.0
149
0.0
 93
        0
 94
       63
282
     0
 72
     1
 77
     1
171
     1
175
     1
179
     1
273
     0
  0
XRECORD
  5
5209
102
{ACAD_REACTORS
330
5208
102
}
330
5208
100
AcDbXrecord
280
     1
102
MATERIAL
148
0.0
149
0.0
149
0.0
 93
        0
 94
       63
282
     0
 72
     1
 77
     1
171
     1
175
     1
179
     1
273
     0
  0
XRECORD
  5
520B
102
{ACAD_REACTORS
330
520A
102
}
330
520A
100
AcDbXrecord
280
     1
102
MATERIAL
148
0.0
149
0.0
149
0.0
 93
        0
 94
       63
282
     0
 72
     1
 77
     1
171
     1
175
     1
179
     1
273
     0
  0
ENDSEC
  0
EOF
